<?xml version="1.0" standalone="no"?>
<!DOCTYPE svg PUBLIC "-//W3C//DTD SVG 1.1//EN" "http://www.w3.org/Graphics/SVG/1.1/DTD/svg11.dtd" >
<svg xmlns="http://www.w3.org/2000/svg">
<metadata>Generated by IcoMoon</metadata>
<defs>
<font id="icomoon" horiz-adv-x="1024">
<font-face units-per-em="1024" ascent="960" descent="-64" />
<missing-glyph horiz-adv-x="1024" />
<glyph unicode="&#x20;" horiz-adv-x="512" d="" />
<glyph unicode="&#xe900;" glyph-name="arrow-bold_08" d="M640 448l-298.667-213.333v426.667l298.667-213.333zM725.333 661.333h-85.333v-426.667h85.333v426.667zM512 874.667c235.264 0 426.667-191.403 426.667-426.667s-191.403-426.667-426.667-426.667-426.667 191.403-426.667 426.667 191.403 426.667 426.667 426.667zM512 960c-282.752 0-512-229.248-512-512s229.248-512 512-512 512 229.248 512 512-229.248 512-512 512z" />
<glyph unicode="&#xe901;" glyph-name="arrow-bold_09" d="M512 874.667c235.264 0 426.667-191.403 426.667-426.667s-191.403-426.667-426.667-426.667-426.667 191.403-426.667 426.667 191.403 426.667 426.667 426.667zM512 960c-282.752 0-512-229.248-512-512s229.248-512 512-512 512 229.248 512 512-229.248 512-512 512zM554.667 448l-256-170.624v341.248l256-170.624zM554.667 618.624v-341.248l256 170.624-256 170.624z" />
<glyph unicode="&#xe902;" glyph-name="arrow-bold_10" d="M689.963 661.333l213.333-213.333-213.333-213.333h-604.629v426.667h604.629zM725.333 746.667h-725.333v-597.333h725.333l298.667 298.667-298.667 298.667z" />
<glyph unicode="&#xe903;" glyph-name="arrow-bold_11" d="M706.645 661.333l200.277-213.333-200.277-213.333h-508.544l201.643 213.333-201.643 213.333h508.544zM743.595 746.667h-743.595l282.283-298.667-282.283-298.667h743.595l280.405 298.667-280.405 298.667z" />
<glyph unicode="&#xe904;" glyph-name="arrow-bold_12" d="M256 277.333c58.069 252.928 341.333 298.667 341.333 298.667v85.333l170.667-169.899-170.667-171.435v85.333s-217.685 4.437-341.333-128zM85.333 448c0-235.264 191.403-426.667 426.667-426.667s426.667 191.403 426.667 426.667-191.403 426.667-426.667 426.667-426.667-191.403-426.667-426.667zM1024 448c0-282.752-229.248-512-512-512s-512 229.248-512 512 229.248 512 512 512 512-229.248 512-512z" />
<glyph unicode="&#xe905;" glyph-name="arrow-bold_13" d="M548.224-64l-168.96 335.061-208.597-176.725v865.664l682.667-549.333-264.192-44.288 166.443-328.363-207.36-102.016zM407.467 404.437l178.944-354.133 53.931 26.325-179.755 354.688 197.632 31.957-402.219 322.517v-511.317l151.467 129.963z" />
<glyph unicode="&#xe906;" glyph-name="arrow-bold_14" d="M256 786.944l389.845-299.136-210.261-36.267-179.584 335.403zM170.667 960v-845.781l225.835 195.456 182.656-373.675 166.443 81.365-181.547 370.176 289.28 48.555-682.667 523.904z" />
<glyph unicode="&#xe907;" glyph-name="arrow-bold_15" d="M213.333 777.813l446.976-372.48h-279.125l-167.851-218.325v590.805zM128 960v-1024l295.211 384h472.789l-768 640z" />
<glyph unicode="&#xe908;" glyph-name="arrow-bold_16" d="M213.333 777.813l446.976-372.48h-265.643l-181.333 372.48zM128 960v-1024l295.211 384h472.789l-768 640z" />
<glyph unicode="&#xe909;" glyph-name="arrow-bold_17" d="M171.563 503.979c51.541-7.339 107.093-55.979 127.104-75.989v448.597c0 46.080 39.253 83.413 85.333 83.413s85.333-37.333 85.333-83.413v-258.475c0-33.451 34.731-37.76 39.211-4.395 9.216 68.437 107.477 77.525 114.901-17.024 1.835-23.296 30.976-27.947 36.949-1.152 13.909 61.611 106.709 62.208 117.675-32.341 2.816-24.704 33.963-29.696 36.181-1.451 2.176 28.587 11.989 39.851 25.899 39.851 46.848 0 98.517-86.144 98.517-188.16 0-183.253-128-183.723-128-477.44h-426.667c-14.165 168.192-147.712 317.056-267.563 436.949-20.821 20.821-31.104 44.885-31.104 66.731 0 39.68 32.384 72.021 86.229 64.299z" />
<glyph unicode="&#xe90a;" glyph-name="arrow-bold_18" d="M938.667 448c0-235.264-191.403-426.667-426.667-426.667s-426.667 191.403-426.667 426.667 191.403 426.667 426.667 426.667 426.667-191.403 426.667-426.667zM0 448c0-282.752 229.248-512 512-512s512 229.248 512 512-229.248 512-512 512-512-229.248-512-512zM689.835 583.168l78.165 78.165v-256h-256l76.331 76.331c-186.965 133.163-455.552-76.885-213.803-328.789-376.405 239.189-19.456 689.28 315.307 430.293z" />
<glyph unicode="&#xe90b;" glyph-name="arrow-bold_19" d="M512 960c141.227 0 268.416-57.728 360.917-150.272l105.813 105.813 45.269-313.216-317.312 41.216 106.197 106.197c-77.141 77.099-183.424 124.928-300.885 124.928-235.264 0-426.667-191.403-426.667-426.667s191.403-426.667 426.667-426.667c165.205 0 308.437 94.549 379.307 232.235l73.259-44.629c-85.845-162.261-256.213-272.939-452.565-272.939-282.752 0-512 229.248-512 512s229.248 512 512 512z" />
<glyph unicode="&#xe90c;" glyph-name="arrow-bold_20" d="M726.443-19.499c467.499 487.296-99.243 890.24-443.051 567.851l105.131-100.352h-388.523v381.739l95.232-95.104c631.211 563.328 1344.427-300.843 631.211-754.133z" />
<glyph unicode="&#xe90d;" glyph-name="arrow-bold_21" d="M512 874.667c235.264 0 426.667-191.403 426.667-426.667s-191.403-426.667-426.667-426.667-426.667 191.403-426.667 426.667 191.403 426.667 426.667 426.667zM512 960c-282.752 0-512-229.248-512-512s229.248-512 512-512 512 229.248 512 512-229.248 512-512 512zM649.472 152.875c241.749 251.947-26.837 461.995-213.803 328.789l76.331-76.331h-256v256l78.165-78.165c334.763 258.987 691.712-191.104 315.307-430.293z" />
<glyph unicode="&#xe90e;" glyph-name="arrow-bold_22" d="M512 960c-141.227 0-268.416-57.728-360.917-150.272l-105.813 105.813-45.269-313.216 317.312 41.216-106.197 106.155c77.141 77.141 183.424 124.971 300.885 124.971 235.264 0 426.667-191.403 426.667-426.667s-191.403-426.667-426.667-426.667c-165.205 0-308.437 94.549-379.307 232.235l-73.259-44.629c85.845-162.261 256.213-272.939 452.565-272.939 282.752 0 512 229.248 512 512s-229.248 512-512 512z" />
<glyph unicode="&#xe90f;" glyph-name="arrow-fill_01" d="M554.667 661.333v256l469.333-469.333-469.333-469.333v256h-554.667v426.667z" />
<glyph unicode="&#xe910;" glyph-name="arrow-fill_02" d="M512 960c-282.752 0-512-229.248-512-512s229.248-512 512-512 512 229.248 512 512-229.248 512-512 512zM554.667 192v170.667h-298.667v170.667h298.667v170.667l256-256-256-256z" />
<glyph unicode="&#xe911;" glyph-name="arrow-fill_03" d="M512 618.667v213.333l384-384-384-384v213.333h-512v341.333h512zM1024 789.333h-128v-682.667h128v682.667z" />
<glyph unicode="&#xe912;" glyph-name="arrow-fill_04" d="M512 960c-282.752 0-512-229.248-512-512s229.248-512 512-512 512 229.248 512 512-229.248 512-512 512zM768 234.667h-85.333v213.333l-213.333-213.333v128h-256v170.667h256v128l213.333-213.333v213.333h85.333v-426.667z" />
<glyph unicode="&#xe913;" glyph-name="arrow-fill_05" d="M1024 448l-384 384v-298.667h-640v-170.667h640v-298.667z" />
<glyph unicode="&#xe914;" glyph-name="arrow-fill_06" d="M1024 448l-469.333 341.333v-256h-554.667v-170.667h554.667v-256z" />
<glyph unicode="&#xe915;" glyph-name="arrow-fill_07" d="M1024 448l-512 384v-213.333h-512v-341.333h512v-213.333l512 384z" />
<glyph unicode="&#xe916;" glyph-name="arrow-fill_08" d="M1024 448l-383.616-265.728v116.139c108.373 74.965 215.595 149.589 215.595 149.589s-107.221 73.301-215.595 148.224v116.139l383.616-264.363zM727.040 448l-385.707 261.035v-133.035h-341.333v-256h341.333v-133.035l385.707 261.035z" />
<glyph unicode="&#xe917;" glyph-name="arrow-fill_09" d="M512 789.333v170.667l512-512-512-512v170.667h-512v682.667z" />
<glyph unicode="&#xe918;" glyph-name="arrow-fill_10" d="M682.667 647.339v141.995l341.333-341.333-341.333-341.333v141.995l-682.667 199.339z" />
<glyph unicode="&#xe919;" glyph-name="arrow-fill_11" d="M682.667 618.667v170.667l341.333-341.333-341.333-341.333v170.667h-682.667l341.333 341.333h341.333z" />
<glyph unicode="&#xe91a;" glyph-name="arrow-fill_12" d="M682.667 618.667v170.667l341.333-341.333-341.333-341.333v170.667h-213.333v341.333h213.333zM384 618.667h-85.333v-341.333h85.333v341.333zM212.736 618.667h-84.736v-341.333h84.736v341.333zM42.667 618.667h-42.667v-341.333h42.667v341.333z" />
<glyph unicode="&#xe91b;" glyph-name="arrow-fill_13" d="M1024 453.504l-213.333 207.829v-128h-810.667v-170.667h810.667v-128z" />
<glyph unicode="&#xe91c;" glyph-name="arrow-fill_14" d="M514.901 959.317l-158.592-157.781 224.555-225.536h-580.864v-256h580.864l-225.92-226.859 158.635-157.824 510.421 512.683z" />
<glyph unicode="&#xe91d;" glyph-name="arrow-fill_15" d="M555.733 917.333l-121.472-120.661 263.509-263.509h-697.771v-170.325h697.771l-263.509-263.509 121.472-120.661 468.267 469.333z" />
<glyph unicode="&#xe91e;" glyph-name="arrow-fill_16" d="M597.333 874.667h-308.437l299.264-298.667h-588.16v-256h588.16l-299.264-298.667h308.437l426.667 426.667z" />
<glyph unicode="&#xe91f;" glyph-name="arrow-fill_17" d="M682.667 789.333h-232.064l171.733-170.923h-622.336v-340.821h622.336l-171.733-170.923h232.064l341.333 341.333z" />
<glyph unicode="&#xe920;" glyph-name="arrow-fill_18" d="M748.971 448l-256-256h-169.771l131.968 128h-455.168v256h455.168l-131.968 128h169.771l256-256zM768 704h-169.771l256-256-256-256h169.771l256 256-256 256z" />
<glyph unicode="&#xe921;" glyph-name="arrow-fill_19" d="M346.539-64l-175.872 170.667 341.333 341.333-341.333 341.333 175.872 170.667 506.795-512z" />
<glyph unicode="&#xe922;" glyph-name="arrow-fill_20" d="M213.333 832l130.432 128 509.568-512-509.568-512-130.432 128 384 384z" />
<glyph unicode="&#xe923;" glyph-name="arrow-fill_21" d="M512 960c-282.752 0-512-229.248-512-512s229.248-512 512-512 512 229.248 512 512-229.248 512-512 512zM460.032 149.333l-76.032 74.667 224 224-224 224 76.032 74.667 297.301-298.667-297.301-298.667z" />
<glyph unicode="&#xe924;" glyph-name="arrow-fill_22" d="M257.195 960v-274.133l236.757-237.867-236.757-237.867v-274.133l509.611 512z" />
<glyph unicode="&#xe925;" glyph-name="arrow-fill_23" d="M447.019 960h-383.019l513.024-512-513.024-512h383.019l512.981 512z" />
<glyph unicode="&#xe926;" glyph-name="arrow-fill_24" d="M0 798.080l127.787 127.147 474.965-477.227-474.965-477.269-127.787 127.189 348.459 350.080-348.459 350.080zM769.707 448l-348.459-350.080 127.787-127.147 474.965 477.227-474.965 477.269-127.787-127.147 348.459-350.123z" />
<glyph unicode="&#xe927;" glyph-name="arrow-fill_25" d="M427.691 789.333h256.64l339.669-341.333-339.669-341.333h-256.64l339.669 341.333-339.669 341.333zM0 106.667h256.64l339.669 341.333-339.669 341.333h-256.64l339.669-341.333-339.669-341.333z" />
<glyph unicode="&#xe928;" glyph-name="arrow-fill_26" d="M938.667 448l-853.333-512 310.997 512-310.997 512z" />
<glyph unicode="&#xe929;" glyph-name="arrow-fill_27" d="M938.667 448l-853.333-512 213.333 512-213.333 512z" />
<glyph unicode="&#xe92a;" glyph-name="arrow-fill_28" d="M896 448l-768-512v1024z" />
<glyph unicode="&#xe92b;" glyph-name="arrow-fill_29" d="M512 960c-282.752 0-512-229.248-512-512s229.248-512 512-512 512 229.248 512 512-229.248 512-512 512zM384 192v512l384-256-384-256z" />
<glyph unicode="&#xe92c;" glyph-name="arrow-fill_30" d="M810.667 448l-768-512v1024l768-512zM981.333 917.333h-170.667v-938.667h170.667v938.667z" />
<glyph unicode="&#xe92d;" glyph-name="arrow-fill_31" d="M512 960c-282.752 0-512-229.248-512-512s229.248-512 512-512 512 229.248 512 512-229.248 512-512 512zM768 192h-85.333v256l-384-256v512l384-256v256h85.333v-512z" />
<glyph unicode="&#xe92e;" glyph-name="arrow-fill_32" d="M512 448l-512-341.333v682.667l512-341.333zM512 789.333v-682.667l512 341.333-512 341.333z" />
<glyph unicode="&#xe92f;" glyph-name="arrow-fill_33" d="M469.333 448l-469.333-298.667v597.333l469.333-298.667zM469.333 746.667v-597.333l426.667 298.667-426.667 298.667zM1024 704h-128v-512h128v512z" />
<glyph unicode="&#xe930;" glyph-name="arrow-fill_34" d="M512 960c-282.752 0-512-229.248-512-512s229.248-512 512-512 512 229.248 512 512-229.248 512-512 512zM554.667 248.917v199.083l-298.667-199.083v398.165l298.667-199.083v199.083l298.667-199.083-298.667-199.083z" />
<glyph unicode="&#xe931;" glyph-name="arrow-fill_35" d="M597.333 448l-597.333-384v768l597.333-384zM426.667 832v-170.667l342.272-213.333-342.272-213.333v-170.667l597.333 384-597.333 384z" />
<glyph unicode="&#xe932;" glyph-name="arrow-fill_36" d="M725.333 746.667h-725.333v-597.333h725.333l298.667 298.667z" />
<glyph unicode="&#xe933;" glyph-name="arrow-fill_37" d="M743.595 746.667h-743.595l282.283-298.667-282.283-298.667h743.595l280.405 298.667z" />
<glyph unicode="&#xe934;" glyph-name="arrow-fill_38" d="M597.333 192l426.667 302.421-426.667 294.912v-129.792s-495.701-110.208-597.333-552.875c216.405 231.723 597.333 222.635 597.333 222.635v-137.301z" />
<glyph unicode="&#xe935;" glyph-name="arrow-fill_39" d="M469.333 277.333v87.381s-305.323 2.816-469.333-172.715c77.056 335.403 469.333 422.955 469.333 422.955v89.045l306.347-214.187-306.347-212.48zM725.333 704v-93.184l166.016-121.003-166.016-120.96v-91.52l298.667 212.48-298.667 214.187z" />
<glyph unicode="&#xe936;" glyph-name="arrow-fill_40" d="M640 277.333v-213.333l384 429.312-384 424.021v-213.333c-600.277-73.003-825.515-644.565-452.523-724.523-162.304 125.269 138.709 317.483 452.523 297.856z" />
<glyph unicode="&#xe937;" glyph-name="arrow-fill_41" d="M512 960c-282.752 0-512-229.248-512-512s229.248-512 512-512 512 229.248 512 512-229.248 512-512 512zM597.333 277.333v112s-239.744-0.213-384-154.667c67.755 295.083 384 353.792 384 353.792v115.541l213.333-214.229-213.333-212.437z" />
<glyph unicode="&#xe938;" glyph-name="arrow-fill_42" d="M512 960c-282.752 0-512-229.248-512-512s229.248-512 512-512 512 229.248 512 512-229.248 512-512 512zM445.099 191.787l-60.331 60.373 195.157 195.84-195.157 195.371 60.331 60.416 255.488-255.787-255.488-256.213z" />
<glyph unicode="&#xe939;" glyph-name="arrow-fill_43" d="M512 960c-282.752 0-512-229.248-512-512s229.248-512 512-512 512 229.248 512 512-229.248 512-512 512zM554.667 234.667v170.667h-341.333v85.333h341.333v170.667l256-213.333-256-213.333z" />
<glyph unicode="&#xe93a;" glyph-name="arrow-fill_44" d="M0 448c0-282.752 229.248-512 512-512s512 229.248 512 512-229.248 512-512 512-512-229.248-512-512zM725.333 490.667h-170.667v-341.333h-85.333v341.333h-170.667l213.333 256 213.333-256z" />
<glyph unicode="&#xe93b;" glyph-name="arrow-fill_45" d="M170.667 960l682.667-523.904-289.28-48.555 181.589-370.176-166.485-81.365-182.656 373.675-225.835-195.456z" />
<glyph unicode="&#xe93c;" glyph-name="arrow-fill_46" d="M896 334.72l-247.424-38.741 144.768-295.125-132.736-64.853-145.621 297.899-173.653-155.776v676.565l554.667-419.968zM350.208 800l-44.459-22.144-65.536 131.712 44.501 22.144 65.493-131.712zM461.099 952.619l-49.152 7.381-21.888-145.451 49.152-7.381 21.888 145.451zM257.195 703.104l23.765 43.648-129.195 70.315-23.765-43.648 129.195-70.315z" />
<glyph unicode="&#xe93d;" glyph-name="arrow-fill_47" d="M896 334.72l-247.424-38.741 144.768-295.125-132.736-64.853-145.621 297.899-173.653-155.776v676.565l554.667-419.968zM256 599.765c-50.773 29.568-85.333 84.011-85.333 146.901 0 94.123 76.544 170.667 170.667 170.667 95.36 0 177.664-80 169.344-183.851l39.595-29.995c27.179 131.712-73.173 256.512-208.939 256.512-117.803 0-213.333-95.531-213.333-213.333 0-87.424 52.736-162.389 128-195.328v48.427z" />
<glyph unicode="&#xe93e;" glyph-name="arrow-fill_48" d="M469.333 576l426.667-327.467-180.736-30.293 113.451-231.339-104.107-50.901-114.133 233.557-141.141-122.155v528.597zM469.333 789.333c-94.251 0-170.667-76.416-170.667-170.667 0-63.019 34.56-117.419 85.333-146.987v52.267c-25.984 23.467-42.667 57.045-42.667 94.72 0 70.571 57.429 128 128 128s128-57.429 128-128c0-10.496-1.621-20.523-4.011-30.251l35.925-27.563c6.571 18.091 10.752 37.419 10.752 57.813 0 94.251-76.416 170.667-170.667 170.667zM384 377.6c-99.285 35.243-170.667 129.877-170.667 241.067 0 141.184 114.816 256 256 256s256-114.816 256-256c0-40.064-9.515-77.824-25.984-111.659l68.992-52.949c26.923 48.853 42.325 104.917 42.325 164.608 0 188.501-152.789 341.333-341.333 341.333-188.501 0-341.333-152.832-341.333-341.333 0-159.019 108.843-292.224 256-330.155v89.088z" />
<glyph unicode="&#xe93f;" glyph-name="arrow-fill_49" d="M469.461 618.667l426.539-349.227-180.693-32.341 113.451-246.784-104.149-54.315-114.091 249.131-141.184-130.347 0.128 563.883zM384 462.080v46.805l-73.984-33.323 12.245 135.381-109.995 79.957 123.904 56.533 14.251 135.339 110.848-79.019 124.373 55.381-13.013-135.68 110.592-79.872-70.656-31.829 36.864-30.165 118.571 53.419-150.571 108.715 17.664 184.107-168.917-75.179-150.528 107.349-19.371-183.851-168.277-76.757 149.589-108.715-16.683-183.979 123.093 55.381z" />
<glyph unicode="&#xe940;" glyph-name="arrow-fill_50" d="M597.333 576l426.667-327.467-180.736-30.293 113.493-231.381-104.149-50.859-114.133 233.557-141.141-122.155v528.597zM298.667 874.667h213.333v85.333h-213.333v-85.333zM597.333 874.667h128v-128h85.333v213.333h-213.333v-85.333zM85.333 746.667v128h128v85.333h-213.333v-213.333h85.333zM0 448h85.333v213.333h-85.333v-213.333zM213.333 234.667h-128v128h-85.333v-213.333h213.333v85.333zM725.333 661.333v-75.989l85.333-65.493v141.483h-85.333zM298.667 149.333h213.333v85.333h-213.333v-85.333z" />
<glyph unicode="&#xe941;" glyph-name="arrow-fill_51" d="M597.333 334.72l-247.424-38.741 144.768-295.125-132.779-64.853-145.579 297.899-173.653-155.776v676.565l554.667-419.968zM725.291 960c-141.312 0-255.957-114.603-255.957-256s114.645-256 255.957-256c141.397 0 256.043 114.645 256.043 256s-114.645 256-256.043 256zM728.064 533.888c-20.096 0-36.395 16.341-36.395 36.395 0 20.096 16.299 36.395 36.395 36.395 20.139 0 36.437-16.299 36.437-36.395 0-20.053-16.299-36.395-36.437-36.395zM756.693 641.408v-6.528h-59.989v6.528c0 18.517 2.731 42.283 24.235 62.891 21.504 20.651 48.341 37.717 48.341 63.531 0 28.501-19.797 43.605-44.757 43.605-41.557 0-44.288-43.179-45.312-52.651h-58.325c1.579 45.013 20.565 107.904 104.064 107.904 72.235 0 104.747-48.427 104.747-93.867 0-72.235-73.003-84.821-73.003-131.413z" />
<glyph unicode="&#xe942;" glyph-name="arrow-fill_52" d="M597.333 334.72l-247.424-38.741 144.768-295.125-132.779-64.853-145.579 297.899-173.653-155.776v676.565l554.667-419.968zM725.291 960c-141.355 0-255.957-114.603-255.957-256s114.603-256 255.957-256c141.397 0 256.043 114.645 256.043 256s-114.645 256-256.043 256zM725.291 867.328c90.197 0 163.285-73.088 163.285-163.285s-73.088-163.285-163.285-163.285c-90.155 0-163.243 73.088-163.243 163.285s73.088 163.285 163.243 163.285zM494.165 704c0 61.739 24.021 119.808 67.712 163.456 43.648 43.648 101.717 67.712 163.413 67.712v-43.008c-103.723 0-188.117-84.437-188.117-188.16 0-51.968 21.163-99.072 55.296-133.163l-30.123-30.72-0.469 0.469c-43.648 43.648-67.712 101.675-67.712 163.413z" />
<glyph unicode="&#xe943;" glyph-name="arrow-fill_53" d="M597.333 334.72l-247.424-38.741 144.768-295.125-132.779-64.853-145.579 297.899-173.653-155.776v676.565l554.667-419.968zM725.333 960c-141.355 0-256-114.645-256-256s114.645-256 256-256 256 114.645 256 256-114.603 256-256 256zM554.667 704c0 31.531 9.173 60.757 24.192 86.144l232.661-232.661c-25.387-14.976-54.613-24.149-86.187-24.149-94.123 0-170.667 76.544-170.667 170.667zM871.851 617.813l-232.661 232.661c25.387 15.019 54.613 24.192 86.144 24.192 94.123 0 170.667-76.544 170.667-170.667 0-31.573-9.173-60.757-24.149-86.187z" />
<glyph unicode="&#xe944;" glyph-name="arrow-fill_54" d="M554.667 704h170.667l-213.333 256-213.333-256h170.667v-512h-170.667l213.333-256 213.333 256h-170.667z" />
<glyph unicode="&#xe945;" glyph-name="arrow-fill_55" d="M256 490.667v170.667l-256-213.333 256-213.333v170.667h512v-170.667l256 213.333-256 213.333v-170.667z" />
<glyph unicode="&#xe946;" glyph-name="arrow-fill_56" d="M361.173 659.2l120.661 130.133h-311.168v-311.168l130.176 120.704 361.984-362.069-120.661-130.133h311.168v311.125l-130.176-120.661z" />
<glyph unicode="&#xe947;" glyph-name="arrow-fill_57" d="M469.333 704h-170.667l213.333 256 213.333-256h-170.667v-128h-85.333v128zM554.667 320h-85.333v-128h-170.667l213.333-256 213.333 256h-170.667v128zM810.667 490.667h-597.333v-85.333h597.333v85.333z" />
<glyph unicode="&#xe948;" glyph-name="arrow-fill_58" d="M256 405.333v-170.667l-256 213.333 256 213.333v-170.667h128v-85.333h-128zM640 490.667v-85.333h128v-170.667l256 213.333-256 213.333v-170.667h-128zM469.333 746.667v-597.333h85.333v597.333h-85.333z" />
<glyph unicode="&#xe949;" glyph-name="arrow-fill_59" d="M597.333 448c0-47.104-38.229-85.333-85.333-85.333s-85.333 38.229-85.333 85.333 38.229 85.333 85.333 85.333 85.333-38.229 85.333-85.333zM469.333 612.608c13.696 3.541 27.861 6.059 42.667 6.059s28.971-2.517 42.667-6.059v91.392h170.667l-213.333 256-213.333-256h170.667v-91.392zM554.667 283.392c-13.696-3.541-27.861-6.059-42.667-6.059s-28.971 2.517-42.667 6.059v-91.392h-170.667l213.333-256 213.333 256h-170.667v91.392z" />
<glyph unicode="&#xe94a;" glyph-name="arrow-fill_60" d="M512 533.333c47.104 0 85.333-38.229 85.333-85.333s-38.229-85.333-85.333-85.333-85.333 38.229-85.333 85.333 38.229 85.333 85.333 85.333zM347.435 405.333c-3.584 13.696-6.101 27.819-6.101 42.667s2.517 28.971 6.101 42.667h-91.435v170.667l-256-213.333 256-213.333v170.667h91.435zM676.565 490.667c3.584-13.696 6.101-27.819 6.101-42.667s-2.517-28.971-6.101-42.667h91.435v-170.667l256 213.333-256 213.333v-170.667h-91.435z" />
<glyph unicode="&#xe94b;" glyph-name="arrow-fill_61" d="M512 533.333c47.104 0 85.333-38.229 85.333-85.333s-38.229-85.333-85.333-85.333-85.333 38.229-85.333 85.333 38.229 85.333 85.333 85.333zM347.435 405.333c-3.584 13.696-6.101 27.819-6.101 42.667s2.517 28.971 6.101 42.667h-91.435v170.667l-256-213.333 256-213.333v170.667h91.435zM676.565 490.667c3.584-13.696 6.101-27.819 6.101-42.667s-2.517-28.971-6.101-42.667h91.435v-170.667l256 213.333-256 213.333v-170.667h-91.435zM554.667 283.435c-13.696-3.584-27.819-6.101-42.667-6.101s-28.971 2.517-42.667 6.101v-91.435h-170.667l213.333-256 213.333 256h-170.667v91.435zM469.333 612.565c13.696 3.584 27.819 6.101 42.667 6.101s28.971-2.517 42.667-6.101v91.435h170.667l-213.333 256-213.333-256h170.667v-91.435z" />
<glyph unicode="&#xe94c;" glyph-name="arrow-fill_62" d="M1024 448l-256 213.333v-170.667h-213.333v213.333h170.667l-213.333 256-213.333-256h170.667v-213.333h-213.333v170.667l-256-213.333 256-213.333v170.667h213.333v-213.333h-170.667l213.333-256 213.333 256h-170.667v213.333h213.333v-170.667z" />
<glyph unicode="&#xe94d;" glyph-name="arrow-fill_63" d="M853.333 490.667h-298.667v298.667h-85.333v-298.667h-298.667v-85.333h298.667v-298.667h85.333v298.667h298.667z" />
<glyph unicode="&#xe94e;" glyph-name="arrow-fill_64" d="M469.333 576v213.333h85.333v-213.333h-85.333zM384 490.667h-213.333v-85.333h213.333v85.333zM640 490.667v-85.333h213.333v85.333h-213.333zM469.333 320v-213.333h85.333v213.333h-85.333zM554.667 490.667h-85.333v-85.333h85.333v85.333z" />
<glyph unicode="&#xe94f;" glyph-name="arrow-fill_65" d="M554.667 64c0-23.552 19.072-42.667 42.667-42.667h85.333v-85.333h-341.333v85.333h85.632c23.552 0 42.667 19.115 42.667 42.667v768c0 23.552-19.115 42.667-42.667 42.667h-85.632v85.333h341.333v-85.333h-85.333c-23.595 0-42.667-19.115-42.667-42.667v-768z" />
<glyph unicode="&#xe950;" glyph-name="arrow-fill_66" d="M597.333 874.667h85.333v85.333h-85.333c-32.896 0-62.635-12.843-85.333-33.28-22.699 20.437-52.437 33.28-85.333 33.28h-85.333v-85.333h85.333c23.595 0 42.667-19.115 42.667-42.667v-341.333h-85.333v-85.333h85.333v-341.333c0-23.552-19.072-42.667-42.667-42.667h-85.333v-85.333h85.333c32.896 0 62.635 12.843 85.333 33.28 22.699-20.437 52.437-33.28 85.333-33.28h85.333v85.333h-85.333c-23.595 0-42.667 19.115-42.667 42.667v341.333h85.333v85.333h-85.333v341.333c0 23.552 19.072 42.667 42.667 42.667z" />
<glyph unicode="&#xe951;" glyph-name="arrow-fill_67" d="M554.667 832v-341.333h85.333v-85.333h-85.333v-341.333c0-23.552 19.072-42.667 42.667-42.667h85.333v-85.333h-85.333c-32.896 0-62.635 12.843-85.333 33.28-22.699-20.437-52.437-33.28-85.333-33.28h-85.333v85.333h85.333c23.595 0 42.667 19.115 42.667 42.667v341.333h-85.333v85.333h85.333v341.333c0 23.552-19.072 42.667-42.667 42.667h-85.333v85.333h85.333c32.896 0 62.635-12.843 85.333-33.28 22.699 20.437 52.437 33.28 85.333 33.28h85.333v-85.333h-85.333c-23.595 0-42.667-19.115-42.667-42.667zM1024 234.667v170.667h-85.333v-170.667h85.333zM938.667 661.333v-170.667h85.333v170.667h-85.333zM0 661.333v-170.667h85.333v170.667h-85.333zM938.667 746.667h85.333v170.667h-213.333v-85.333h128v-85.333zM0 746.667h85.333v85.333h128v85.333h-213.333v-170.667zM938.667 149.333v-85.333h-128v-85.333h213.333v170.667h-85.333zM85.333 149.333h-85.333v-170.667h213.333v85.333h-128v85.333zM85.333 234.667v170.667h-85.333v-170.667h85.333z" />
<glyph unicode="&#xe952;" glyph-name="arrow-fill_68" d="M790.869 637.653c-50.688 10.752-196.523 38.571-236.203 46.421v149.845c0 69.504-57.429 126.080-128 126.080s-128-56.576-128-126.080v-318.165c-23.637 14.336-50.688 26.496-78.421 30.507-77.739 11.179-134.912-40.107-134.912-106.581 0-34.347 15.488-68.821 43.605-96.896 169.472-169.472 242.688-218.667 258.517-406.784h423.211v74.581c0 219.904 128 257.323 128 427.904 0 104.448-45.269 177.365-147.797 199.168zM806.101 295.381c-35.029-63.275-78.421-141.611-80.683-274.048h-261.547c-30.976 162.987-162.56 269.568-274.603 381.824-29.355 29.269-16.768 58.453 18.859 58.581 53.888 0.256 130.56-80.384 175.872-136.747v508.928c0 22.059 19.541 40.747 42.667 40.747s42.667-18.688 42.667-40.747v-296.448c0-13.44 10.923-24.363 24.405-24.363 13.397 0 24.32 10.923 24.32 24.363v24.533c0 22.784 20.907 40.021 43.264 35.541 16.981-3.371 29.269-18.261 29.269-35.541v-54.315c0-13.44 10.923-24.363 24.363-24.363s24.363 10.923 24.363 24.363v35.413c0 22.656 20.779 39.765 43.008 35.328 16.896-3.328 29.099-18.091 29.099-35.328v-65.408c0-13.44 10.923-24.363 24.363-24.363s24.363 10.923 24.363 24.363v38.912c0 22.315 23.253 36.992 43.435 27.563 27.52-13.013 49.749-39.765 49.749-105.685 0-57.813-19.84-93.568-47.232-143.104z" />
<glyph unicode="&#xe953;" glyph-name="arrow-fill_69" d="M451.115 831.104h316.885v128.896l256-229.973-256-239.36v128h-316.885c-131.029 0-237.269-100.523-237.269-231.552s106.197-237.781 237.269-237.781h316.885v-213.333h-316.885c-249.173 0-451.115 201.984-451.115 451.115s201.941 443.989 451.115 443.989z" />
<glyph unicode="&#xe954;" glyph-name="arrow-fill_70" d="M218.24 810.027c196.992 197.035 514.389 199.509 714.923 8.32l90.837 96.341v-338.688h-319.317l88.149 93.483c-120.32 115.456-311.339 114.176-429.781-4.267-185.216-185.216-74.112-524.416 234.283-524.416v-204.8c-158.208 0-282.197 53.077-379.093 149.973-199.936 199.936-199.936 524.117 0 724.053z" />
<glyph unicode="&#xe955;" glyph-name="arrow-fill_71" d="M175.573 724.693c196.992 197.035 514.389 199.509 714.923 8.32l90.837 96.341v-338.688h-319.317l88.149 93.483c-120.277 115.456-311.339 114.176-429.824-4.267-127.659-127.701-113.664-327.851 8.021-440.277l-141.397-149.333c-201.216 180.309-224.299 521.515-11.392 734.421z" />
<glyph unicode="&#xe956;" glyph-name="arrow-fill_72" d="M0 448c0-282.752 229.248-512 512-512s512 229.248 512 512-229.248 512-512 512-512-229.248-512-512zM689.835 583.168l78.165 78.165v-256h-256l76.331 76.331c-186.965 133.163-455.552-76.885-213.803-328.789-376.405 239.189-19.456 689.28 315.307 430.293z" />
<glyph unicode="&#xe957;" glyph-name="arrow-fill_73" d="M1010.219 169.813c38.997-64.981-7.808-148.139-83.925-148.139h-828.331c-76.117 0-122.923 83.157-83.925 148.139l414.251 690.347c38.016 63.275 129.749 63.147 167.68 0l414.251-690.347z" />
<glyph unicode="&#xe958;" glyph-name="arrow-fill_74" d="M493.824 801.621c8.32 13.781 28.245 13.781 36.565 0l399.787-663.253c8.533-14.208-1.664-32.299-18.304-32.299l-796.501 0.256c-16.427 0-26.837 18.005-18.261 32.341l396.715 662.955zM512.128 907.563c-32.427 0-64.896-15.787-83.883-47.403l-414.165-690.347c-39.040-64.981 7.765-148.139 83.84-148.139h828.416c76.075 0 122.837 83.157 83.84 148.139l-414.165 690.347c-19.029 31.616-51.413 47.403-83.883 47.403z" />
<glyph unicode="&#xe959;" glyph-name="arrow-fill_75" d="M572.885 831.104h-316.885v128.896l-256-229.973 256-239.36v128h316.885c131.029 0 237.269-100.523 237.269-231.552s-106.197-237.781-237.269-237.781h-316.885v-213.333h316.885c249.173 0 451.115 201.984 451.115 451.115s-201.941 443.989-451.115 443.989z" />
<glyph unicode="&#xe95a;" glyph-name="arrow-fill_76" d="M805.76 810.027c-196.992 197.035-514.389 199.509-714.923 8.32l-90.837 96.341v-338.688h319.317l-88.149 93.483c120.32 115.456 311.339 114.176 429.781-4.267 185.216-185.216 74.112-524.416-234.283-524.416v-204.8c158.208 0 282.197 53.077 379.093 149.973 199.936 199.936 199.936 524.117 0 724.053z" />
<glyph unicode="&#xe95b;" glyph-name="arrow-fill_77" d="M512 960c-282.752 0-512-229.248-512-512s229.248-512 512-512 512 229.248 512 512-229.248 512-512 512zM649.472 152.875c241.749 251.947-26.837 461.995-213.803 328.789l76.331-76.331h-256v256l78.165-78.165c334.763 258.987 691.712-191.104 315.307-430.293z" />
<glyph unicode="&#xe95c;" glyph-name="arrow-thin_01" d="M512 960c-282.581 0-512-229.419-512-512s229.419-512 512-512c282.581 0 512 229.419 512 512s-229.419 512-512 512zM512 917.333c259.029 0 469.333-210.304 469.333-469.333s-210.304-469.333-469.333-469.333-469.333 210.304-469.333 469.333 210.304 469.333 469.333 469.333zM384 671.872l28.373 32.128 312.96-256-312.405-256-28.928 31.445 274.773 224.555-274.773 223.872z" />
<glyph unicode="&#xe95d;" glyph-name="arrow-thin_02" d="M170.667 927.787l613.291-479.787-613.291-478.677 26.411-33.323 656.256 512-656.683 512-25.984-32.213z" />
<glyph unicode="&#xe95e;" glyph-name="arrow-thin_03" d="M512 960c282.581 0 512-229.419 512-512s-229.419-512-512-512c-282.581 0-512 229.419-512 512s229.419 512 512 512zM512 917.333c-259.029 0-469.333-210.304-469.333-469.333s210.304-469.333 469.333-469.333 469.333 210.304 469.333 469.333-210.304 469.333-469.333 469.333zM717.995 426.667h-504.661v42.667h504.576l-196.437 159.872 28.416 32.128 260.779-213.333-260.309-213.333-28.971 31.445 196.608 160.555z" />
<glyph unicode="&#xe95f;" glyph-name="arrow-thin_04" d="M933.675 448l-321.152-266.027 27.477-32.64 384 320.896-384 319.104-27.52-32.597 321.237-266.069h-933.717v-42.667h933.675z" />
<glyph unicode="&#xe960;" glyph-name="arrow-thin_05" d="M128-64l768 512-768 512v-1024zM819.072 448l-648.405-432.299v864.555l648.405-432.256z" />
<glyph unicode="&#xe961;" glyph-name="basket-bold_01" d="M194.475 661.333l200.576 200.619c8.491 8.448 19.627 12.715 30.763 12.715 26.155 0 43.52-21.547 43.52-43.904 0-10.667-3.925-21.504-12.757-30.336l-139.093-139.093h-123.008zM706.517 661.333h123.008l-200.576 200.619c-8.491 8.448-19.627 12.715-30.763 12.715-26.155 0-43.52-21.547-43.52-43.904 0-10.667 3.925-21.504 12.757-30.336l139.093-139.093zM864.512 490.667l-0.683-1.749-153.515-382.251h-396.629l-154.155 384h704.981zM1024 576h-1024v-85.333h27.435c22.784 0 43.563-12.971 53.589-33.451l174.976-435.883h512l175.019 435.797c9.941 20.523 30.805 33.536 53.589 33.536h27.392v85.333z" />
<glyph unicode="&#xe962;" glyph-name="basket-bold_02" d="M194.517 661.333l200.576 200.619c8.448 8.448 19.584 12.715 30.72 12.715 26.155 0 43.52-21.547 43.52-43.904 0-10.667-3.925-21.504-12.757-30.336l-139.093-139.093h-122.965zM706.517 661.333h123.008l-200.619 200.619c-8.448 8.448-19.584 12.715-30.72 12.715-26.155 0-43.52-21.547-43.52-43.904 0-10.667 3.925-21.504 12.757-30.336l139.093-139.093zM864.512 490.667l-0.683-1.749-153.515-382.251h-396.629l-154.155 384h704.981zM1024 576h-1024v-85.333h27.435c22.827 0 43.563-12.971 53.589-33.451l174.976-435.883h512l175.019 435.797c9.984 20.523 30.805 33.536 53.589 33.536h27.392v85.333zM426.667 362.667c0 23.552-19.072 42.667-42.667 42.667s-42.667-19.115-42.667-42.667v-128c0-23.552 19.072-42.667 42.667-42.667s42.667 19.115 42.667 42.667v128zM554.667 362.667c0 23.552-19.072 42.667-42.667 42.667s-42.667-19.115-42.667-42.667v-128c0-23.552 19.072-42.667 42.667-42.667s42.667 19.115 42.667 42.667v128zM682.667 362.667c0 23.552-19.072 42.667-42.667 42.667s-42.667-19.115-42.667-42.667v-128c0-23.552 19.072-42.667 42.667-42.667s42.667 19.115 42.667 42.667v128z" />
<glyph unicode="&#xe963;" glyph-name="basket-bold_03" d="M489.643 582.272c-20.011 12.288-26.283 38.528-13.995 58.539l128.171 213.504c8.149 13.312 22.059 20.352 36.224 20.352 33.109 0 53.717-36.48 36.309-64.811l-128.213-213.547c-12.544-20.437-38.827-26.069-58.496-14.037zM864.512 490.667l-0.683-1.749-153.515-382.251h-396.629l-154.155 384h182.016c39.253-53.205 101.205-85.333 170.411-85.333 68.096 0 130.56 31.616 170.581 85.333h181.973zM1024 576h-388.181l-14.976-24.277c-23.381-38.229-64.128-61.056-108.928-61.056-51.285 0-100.651 30.72-119.979 85.333h-391.936v-85.333h27.435c22.827 0 43.563-12.971 53.589-33.451l174.976-435.883h512l175.019 435.797c9.984 20.523 30.805 33.536 53.589 33.536h27.392v85.333zM426.667 192c0-23.552-19.072-42.667-42.667-42.667s-42.667 19.115-42.667 42.667v128c0 23.552 19.072 42.667 42.667 42.667s42.667-19.115 42.667-42.667v-128zM682.667 192c0-23.552-19.072-42.667-42.667-42.667s-42.667 19.115-42.667 42.667v128c0 23.552 19.072 42.667 42.667 42.667s42.667-19.115 42.667-42.667v-128zM554.667 192c0-23.552-19.072-42.667-42.667-42.667s-42.667 19.115-42.667 42.667v128c0 23.552 19.072 42.667 42.667 42.667s42.667-19.115 42.667-42.667v-128z" />
<glyph unicode="&#xe964;" glyph-name="basket-bold_04" d="M567.424 800.427c-8.832 8.789-12.757 19.669-12.757 30.336 0 22.357 17.365 43.904 43.52 43.904 11.179 0 22.272-4.267 30.763-12.715l161.408-161.408c-32.896-4.992-64-15.488-92.075-30.976l-130.859 130.859zM734.677 167.253l-24.363-60.587h-396.629l-154.155 384h402.816c7.296 30.763 19.584 59.52 36.181 85.333h-598.528v-85.333h27.435c22.827 0 43.563-12.971 53.589-33.451l174.976-435.883h512l51.627 128.64c-29.781 1.28-58.325 7.296-84.949 17.28zM456.576 800.427c8.832 8.789 12.757 19.669 12.757 30.336 0 22.357-17.365 43.904-43.52 43.904-11.136 0-22.272-4.267-30.72-12.715l-200.576-200.619h123.008l139.051 139.093zM832 618.667c-105.984 0-192-85.973-192-192s86.016-192 192-192c105.899 0 192 85.973 192 192s-86.101 192-192 192zM938.667 405.333h-85.333v-85.333h-42.667v85.333h-85.333v42.667h85.333v85.333h42.667v-85.333h85.333v-42.667z" />
<glyph unicode="&#xe965;" glyph-name="basket-bold_05" d="M567.424 800.427c-8.832 8.789-12.757 19.669-12.757 30.336 0 22.357 17.365 43.904 43.52 43.904 11.179 0 22.272-4.267 30.763-12.715l161.408-161.408c-32.896-4.992-64-15.488-92.075-30.976l-130.859 130.859zM734.677 167.253l-24.363-60.587h-396.629l-154.155 384h402.816c7.296 30.763 19.627 59.52 36.181 85.333h-598.528v-85.333h27.435c22.827 0 43.563-12.971 53.589-33.451l174.976-435.883h512l51.669 128.64c-29.824 1.28-58.368 7.296-84.992 17.28zM456.576 800.427c8.832 8.789 12.757 19.669 12.757 30.336 0 22.357-17.365 43.904-43.52 43.904-11.136 0-22.272-4.267-30.72-12.715l-200.576-200.619h123.008l139.051 139.093zM832 618.667c-105.984 0-192-85.973-192-192s86.016-192 192-192c105.899 0 192 85.973 192 192s-86.101 192-192 192zM938.667 405.333h-213.333v42.667h213.333v-42.667z" />
<glyph unicode="&#xe966;" glyph-name="basket-bold_06" d="M928.128 300.075c55.509-77.696 40.064-132.437 95.872-210.688l-215.083-153.387c-116.181 86.485-216.405 114.219-248.747 125.099-30.848 10.368-50.731 30.123-43.904 54.997 6.955 25.131 33.237 32.597 54.869 31.616 32.64-1.493 59.136-11.307 59.136-11.307l-150.016 210.347c-13.355 18.773-9.003 44.843 9.771 58.24 18.731 13.397 44.757 9.003 58.155-9.771l101.632-142.208c4.864-6.869 14.421-8.491 21.248-3.584 6.912 4.907 8.491 14.464 3.627 21.333l-25.045 35.115 40.277 10.027c10.581 2.56 21.632-1.536 27.947-10.411l20.48-28.715c4.907-6.869 14.421-8.491 21.291-3.584s8.405 14.421 3.541 21.333l-23.68 33.152 39.595 8.875c10.368 2.219 21.12-1.92 27.307-10.539l17.365-24.405c4.864-6.869 14.464-8.448 21.333-3.584 6.827 4.907 8.448 14.464 3.584 21.333l-19.541 27.349 11.648 2.048c40.661 7.125 62.677-14.037 87.339-48.683zM465.707 438.656c26.027 18.603 59.691 19.2 84.779-0.085-14.251 47.829-71.509 67.541-112.171 38.485-40.747-29.099-40.619-89.6-0.085-118.571-10.069 29.995 1.451 61.611 27.477 80.171zM706.517 746.667h123.008l-200.619 200.619c-8.448 8.448-19.584 12.715-30.72 12.715-26.155 0-43.52-21.547-43.52-43.904 0-10.667 3.925-21.504 12.757-30.336l139.093-139.093zM456.576 885.76c8.832 8.789 12.757 19.669 12.757 30.336 0 22.357-17.365 43.904-43.52 43.904-11.136 0-22.272-4.267-30.763-12.715l-200.576-200.619h123.008l139.093 139.093zM464.427 192h-150.741l-154.155 384h704.939l-58.923-146.773c34.261 6.144 54.699 10.752 91.861-0.085l45.525 113.365c10.069 20.48 30.891 33.493 53.675 33.493h27.392v85.333h-1024v-85.333h27.435c22.784 0 43.563-12.971 53.589-33.451l174.976-435.883h174.336c-0.171 33.707 11.648 62.123 34.091 85.333z" />
<glyph unicode="&#xe967;" glyph-name="basket-fill_01" d="M194.475 661.333l200.576 200.619c8.491 8.448 19.627 12.715 30.763 12.715 26.155 0 43.52-21.547 43.52-43.904 0-10.667-3.925-21.504-12.757-30.336l-139.093-139.093h-123.008zM706.517 661.333h123.008l-200.576 200.619c-8.491 8.448-19.627 12.715-30.763 12.715-26.155 0-43.52-21.547-43.52-43.904 0-10.667 3.925-21.504 12.757-30.336l139.093-139.093zM0 576v-85.333h27.435c22.784 0 43.563-12.971 53.589-33.451l174.976-435.883h512l175.019 435.797c9.941 20.523 30.805 33.536 53.589 33.536h27.392v85.333h-1024z" />
<glyph unicode="&#xe968;" glyph-name="basket-fill_02" d="M567.424 800.427c-8.832 8.789-12.757 19.669-12.757 30.336 0 22.357 17.365 43.904 43.52 43.904 11.179 0 22.272-4.267 30.763-12.715l161.408-161.408c-32.896-4.992-64-15.488-92.075-30.976l-130.859 130.859zM554.667 426.667c0 55.040 16.213 106.197 43.861 149.333h-598.528v-85.333h27.435c22.827 0 43.563-12.971 53.589-33.451l174.976-435.883h512l51.627 128.64c-147.371 6.485-264.96 127.701-264.96 276.693zM456.576 800.427c8.832 8.789 12.757 19.669 12.757 30.336 0 22.357-17.365 43.904-43.52 43.904-11.136 0-22.272-4.267-30.72-12.715l-200.576-200.619h123.008l139.051 139.093zM832 618.667c-105.984 0-192-85.973-192-192s86.016-192 192-192c105.899 0 192 85.973 192 192s-86.101 192-192 192zM938.667 405.333h-85.333v-85.333h-42.667v85.333h-85.333v42.667h85.333v85.333h42.667v-85.333h85.333v-42.667z" />
<glyph unicode="&#xe969;" glyph-name="basket-fill_03" d="M567.424 800.427c-8.832 8.789-12.757 19.669-12.757 30.336 0 22.357 17.365 43.904 43.52 43.904 11.179 0 22.272-4.267 30.763-12.715l161.408-161.408c-32.896-4.992-64-15.488-92.075-30.976l-130.859 130.859zM554.667 426.667c0 55.040 16.256 106.197 43.861 149.333h-598.528v-85.333h27.435c22.827 0 43.563-12.971 53.589-33.451l174.976-435.883h512l51.669 128.64c-147.413 6.485-265.003 127.701-265.003 276.693zM456.576 800.427c8.832 8.789 12.757 19.669 12.757 30.336 0 22.357-17.365 43.904-43.52 43.904-11.136 0-22.272-4.267-30.72-12.715l-200.576-200.619h123.008l139.051 139.093zM832 618.667c-105.984 0-192-85.973-192-192s86.016-192 192-192c105.899 0 192 85.973 192 192s-86.101 192-192 192zM938.667 405.333h-213.333v42.667h213.333v-42.667z" />
<glyph unicode="&#xe96a;" glyph-name="basket-fill_04" d="M567.424 800.427c-8.832 8.789-12.757 19.669-12.757 30.336 0 22.357 17.365 43.904 43.52 43.904 11.179 0 22.272-4.267 30.763-12.715l161.408-161.408c-32.896-4.992-64-15.488-92.075-30.976l-130.859 130.859zM554.667 426.667c0 55.040 16.256 106.197 43.861 149.333h-598.528v-85.333h27.435c22.827 0 43.563-12.971 53.589-33.451l174.976-435.883h512l51.669 128.64c-147.413 6.485-265.003 127.701-265.003 276.693zM456.576 800.427c8.832 8.789 12.757 19.669 12.757 30.336 0 22.357-17.365 43.904-43.52 43.904-11.136 0-22.272-4.267-30.72-12.715l-200.576-200.619h123.008l139.051 139.093zM832 618.667c-106.069 0-192-85.973-192-192s85.931-192 192-192c105.984 0 192 85.973 192 192s-86.016 192-192 192zM811.989 342.016l-72.021 69.845 29.653 29.739 42.325-40.107 90.24 92.544 29.739-29.696-119.936-122.325z" />
<glyph unicode="&#xe96b;" glyph-name="basket-fill_05" d="M567.424 800.427c-8.832 8.789-12.757 19.669-12.757 30.336 0 22.357 17.365 43.904 43.52 43.904 11.179 0 22.272-4.267 30.763-12.715l161.408-161.408c-32.896-4.992-64-15.488-92.075-30.976l-130.859 130.859zM554.667 426.667c0 55.040 16.213 106.197 43.861 149.333h-598.528v-85.333h27.435c22.827 0 43.563-12.971 53.589-33.451l174.976-435.883h512l51.627 128.64c-147.371 6.485-264.96 127.701-264.96 276.693zM456.576 800.427c8.832 8.789 12.757 19.669 12.757 30.336 0 22.357-17.365 43.904-43.52 43.904-11.136 0-22.272-4.267-30.72-12.715l-200.576-200.619h123.008l139.051 139.093zM1024 426.667c0-106.027-86.059-192-192-192s-192 85.973-192 192 86.059 192 192 192 192-85.973 192-192zM892.331 517.205l-60.331-60.331-60.331 60.331-30.165-30.208 60.331-60.331-60.331-60.331 30.165-30.208 60.331 60.331 60.331-60.331 30.208 30.208-60.331 60.331 60.331 60.331-30.208 30.208z" />
<glyph unicode="&#xe96c;" glyph-name="building-bold_01" d="M896 21.333h85.333v-85.333h-938.667v85.333h85.333v938.667h768v-938.667zM469.333 149.333h-85.333v-170.667h85.333v170.667zM640 149.333h-85.333v-170.667h85.333v170.667zM810.667 874.667h-597.333v-853.333h85.333v213.333h426.667v-213.333h85.333v853.333zM298.667 405.333h85.333v-85.333h-85.333v85.333zM469.333 405.333h85.333v-85.333h-85.333v85.333zM640 405.333h85.333v-85.333h-85.333v85.333zM298.667 533.333h85.333v-85.333h-85.333v85.333zM469.333 533.333h85.333v-85.333h-85.333v85.333zM640 533.333h85.333v-85.333h-85.333v85.333zM298.667 661.333h85.333v-85.333h-85.333v85.333zM469.333 661.333h85.333v-85.333h-85.333v85.333zM640 661.333h85.333v-85.333h-85.333v85.333zM298.667 789.333h85.333v-85.333h-85.333v85.333zM469.333 789.333h85.333v-85.333h-85.333v85.333zM640 789.333h85.333v-85.333h-85.333v85.333z" />
<glyph unicode="&#xe96d;" glyph-name="building-bold_02" d="M682.667 661.333h341.333v-725.333h-1024v1024h682.667v-298.667zM298.667 149.333h-85.333v-170.667h85.333v170.667zM469.333 149.333h-85.333v-170.667h85.333v170.667zM768 149.333h-85.333v-170.667h85.333v170.667zM938.667 576h-256v-341.333h170.667v-213.333h85.333v554.667zM597.333 874.667h-512v-853.333h42.667v213.333h426.667v-213.333h42.667v853.333zM256 320h-85.333v85.333h85.333v-85.333zM384 320h-85.333v85.333h85.333v-85.333zM512 320h-85.333v85.333h85.333v-85.333zM853.333 405.333v-85.333h-85.333v85.333h85.333zM256 448h-85.333v85.333h85.333v-85.333zM384 448h-85.333v85.333h85.333v-85.333zM512 448h-85.333v85.333h85.333v-85.333zM768 533.333h85.333v-85.333h-85.333v85.333zM256 576h-85.333v85.333h85.333v-85.333zM384 576h-85.333v85.333h85.333v-85.333zM512 576h-85.333v85.333h85.333v-85.333zM256 704h-85.333v85.333h85.333v-85.333zM384 704h-85.333v85.333h85.333v-85.333zM512 704h-85.333v85.333h85.333v-85.333z" />
<glyph unicode="&#xe96e;" glyph-name="building-bold_03" d="M256 661.333v298.667h554.667v-426.667h213.333v-597.333h-981.333v725.333h213.333zM256-21.333v170.667h-42.667v-170.667h42.667zM597.333 149.333h-128v-170.667h128v170.667zM853.333 149.333h-42.667v-170.667h42.667v170.667zM938.667 448h-128v-256h85.333v-170.667h42.667v426.667zM725.333 874.667h-384v-853.333h42.667v213.333h298.667v-213.333h42.667v853.333zM170.667 21.333v170.667h85.333v384h-128v-554.667h42.667zM896 277.333h-42.667v85.333h42.667v-85.333zM170.667 362.667h42.667v-85.333h-42.667v85.333zM512 320h-85.333v85.333h85.333v-85.333zM640 320h-85.333v85.333h85.333v-85.333zM213.333 490.667v-85.333h-42.667v85.333h42.667zM512 448h-85.333v85.333h85.333v-85.333zM640 448h-85.333v85.333h85.333v-85.333zM512 576h-85.333v85.333h85.333v-85.333zM640 576h-85.333v85.333h85.333v-85.333zM512 704h-85.333v85.333h85.333v-85.333zM640 704h-85.333v85.333h85.333v-85.333z" />
<glyph unicode="&#xe96f;" glyph-name="building-bold_04" d="M42.667-64v85.333h85.333v170.667h-85.333l85.163 170.667h0.171v597.333h768v-597.333h0.171l85.163-170.667h-85.333v-170.667h85.333v-85.333h-938.667zM213.333-21.333h170.667v170.667h-170.667v-170.667zM810.667 149.333h-170.667v-170.667h170.667v170.667zM597.333 149.333h-170.667v-170.667h170.667v170.667zM869.803 320h-715.605l-42.667-85.333h800.939l-42.667 85.333zM298.667 533.333h-85.333v-85.333h85.333v85.333zM640 533.333h-85.333v-85.333h85.333v85.333zM469.333 533.333h-85.333v-85.333h85.333v85.333zM810.667 533.333h-85.333v-85.333h85.333v85.333zM298.667 704h-85.333v-85.333h85.333v85.333zM640 704h-85.333v-85.333h85.333v85.333zM469.333 704h-85.333v-85.333h85.333v85.333zM810.667 704h-85.333v-85.333h85.333v85.333zM298.667 874.667h-85.333v-85.333h85.333v85.333zM640 874.667h-85.333v-85.333h85.333v85.333zM469.333 874.667h-85.333v-85.333h85.333v85.333zM810.667 874.667h-85.333v-85.333h85.333v85.333z" />
<glyph unicode="&#xe970;" glyph-name="building-bold_05" d="M896 362.667h0.171l85.163-170.667h-85.333v-170.667h85.333v-85.333h-938.667v85.333h85.333v170.667h-85.333l85.163 170.667h0.171v597.333h768v-597.333zM384 149.333h-170.667v-170.667h170.667v170.667zM810.667 149.333h-170.667v-170.667h170.667v170.667zM597.333 149.333h-170.667v-170.667h170.667v170.667zM869.803 320h-715.605l-42.667-85.333h800.939l-42.667 85.333zM810.667 874.667h-597.333v-469.333h597.333v469.333zM298.667 576h85.333v-85.333h-85.333v85.333zM469.333 576h85.333v-85.333h-85.333v85.333zM725.333 576v-85.333h-85.333v85.333h85.333zM298.667 704h85.333v-85.333h-85.333v85.333zM469.333 704h85.333v-85.333h-85.333v85.333zM640 704h85.333v-85.333h-85.333v85.333zM298.667 832h85.333v-85.333h-85.333v85.333zM469.333 832h85.333v-85.333h-85.333v85.333zM640 832h85.333v-85.333h-85.333v85.333z" />
<glyph unicode="&#xe971;" glyph-name="building-bold_06" d="M1024-64h-1024v768h256v-256l256 170.667v-171.008l256 171.008v-171.392l256 171.392v-682.667zM170.667 618.667h-85.333v-597.333h853.333v426.667l-256-170.667v170.667l-256-170.667v170.667l-256-170.667v341.333zM640 106.667h-85.333v128h85.333v-128zM469.333 106.667h-85.333v128h85.333v-128zM298.667 106.667h-85.333v128h85.333v-128zM810.667 106.667h-85.333v128h85.333v-128zM128 746.667h-42.667c8.448 93.099 76.16 170.667 149.333 170.667 10.496 0 20.395-2.517 29.141-6.997 13.483 29.312 43.136 49.664 77.525 49.664s64.043-20.352 77.525-49.664c8.747 4.48 18.645 6.997 29.141 6.997 35.328 0 64-28.672 64-64s-28.672-64-64-64c-10.496 0-20.395 2.517-29.141 6.997-13.483-29.312-43.136-49.664-77.525-49.664-100.053 0-158.805 125.909-213.333 0z" />
<glyph unicode="&#xe972;" glyph-name="building-bold_07" d="M469.333 832v128h170.667v-85.333h-128v-42.667h256v-128h85.333v-85.333h128v-597.333h42.667v-85.333h-1024v85.333h42.667v597.333h128v85.333h85.333v128h213.333zM597.333-21.333v213.333l-85.333 42.667-85.333-42.667v-213.333h170.667zM682.667 746.667h-341.333v-128h-85.333v-85.333h-128v-512h213.333v213.333l170.667 99.669 170.667-99.669v-213.333h213.333v512h-128v85.333h-85.333v128zM768 192h85.333v-85.333h-85.333v85.333zM170.667 192h85.333v-85.333h-85.333v85.333zM768 320h85.333v-85.333h-85.333v85.333zM170.667 320h85.333v-85.333h-85.333v85.333zM768 448h85.333v-85.333h-85.333v85.333zM170.667 448h85.333v-85.333h-85.333v85.333zM512 661.333c70.656 0 128-57.344 128-128s-57.344-128-128-128-128 57.344-128 128 57.344 128 128 128zM512 618.667h-42.667v-128h128v42.667h-85.333v85.333z" />
<glyph unicode="&#xe973;" glyph-name="building-fill_01" d="M42.667 21.333h85.333v938.667h768v-938.667h85.333v-85.333h-938.667v85.333zM341.333 149.333v-170.667h128v170.667h-128zM554.667 149.333v-170.667h128v170.667h-128zM298.667 362.667h-85.333v-85.333h85.333v85.333zM640 362.667h-85.333v-85.333h85.333v85.333zM469.333 362.667h-85.333v-85.333h85.333v85.333zM810.667 362.667h-85.333v-85.333h85.333v85.333zM298.667 533.333h-85.333v-85.333h85.333v85.333zM640 533.333h-85.333v-85.333h85.333v85.333zM469.333 533.333h-85.333v-85.333h85.333v85.333zM810.667 533.333h-85.333v-85.333h85.333v85.333zM298.667 704h-85.333v-85.333h85.333v85.333zM640 704h-85.333v-85.333h85.333v85.333zM469.333 704h-85.333v-85.333h85.333v85.333zM810.667 704h-85.333v-85.333h85.333v85.333zM298.667 874.667h-85.333v-85.333h85.333v85.333zM640 874.667h-85.333v-85.333h85.333v85.333zM469.333 874.667h-85.333v-85.333h85.333v85.333zM810.667 874.667h-85.333v-85.333h85.333v85.333z" />
<glyph unicode="&#xe974;" glyph-name="building-fill_02" d="M1024-64h-938.667v1024h597.333v-341.333h341.333v-682.667zM341.333 149.333h-128v-170.667h128v170.667zM554.667 149.333h-128v-170.667h128v170.667zM896 149.333h-128v-170.667h128v170.667zM256 362.667h-85.333v-85.333h85.333v85.333zM597.333 362.667h-85.333v-85.333h85.333v85.333zM426.667 362.667h-85.333v-85.333h85.333v85.333zM810.667 362.667h-85.333v-85.333h85.333v85.333zM938.667 362.667h-85.333v-85.333h85.333v85.333zM256 533.333h-85.333v-85.333h85.333v85.333zM597.333 533.333h-85.333v-85.333h85.333v85.333zM426.667 533.333h-85.333v-85.333h85.333v85.333zM810.667 533.333h-85.333v-85.333h85.333v85.333zM938.667 533.333h-85.333v-85.333h85.333v85.333zM256 704h-85.333v-85.333h85.333v85.333zM597.333 704h-85.333v-85.333h85.333v85.333zM426.667 704h-85.333v-85.333h85.333v85.333zM256 874.667h-85.333v-85.333h85.333v85.333zM597.333 874.667h-85.333v-85.333h85.333v85.333zM426.667 874.667h-85.333v-85.333h85.333v85.333z" />
<glyph unicode="&#xe975;" glyph-name="building-fill_03" d="M1024-64h-981.333v682.667h256v341.333h469.333v-512h256v-512zM512 149.333h-128v-170.667h128v170.667zM682.667 149.333h-128v-170.667h128v170.667zM938.667 149.333h-85.333v-170.667h85.333v170.667zM213.333 149.333h-85.333v-170.667h85.333v170.667zM682.667 362.667h-85.333v-85.333h85.333v85.333zM469.333 362.667h-85.333v-85.333h85.333v85.333zM938.667 362.667h-85.333v-85.333h85.333v85.333zM213.333 362.667h-85.333v-85.333h85.333v85.333zM682.667 533.333h-85.333v-85.333h85.333v85.333zM469.333 533.333h-85.333v-85.333h85.333v85.333zM213.333 533.333h-85.333v-85.333h85.333v85.333zM682.667 704h-85.333v-85.333h85.333v85.333zM469.333 704h-85.333v-85.333h85.333v85.333zM682.667 874.667h-85.333v-85.333h85.333v85.333zM469.333 874.667h-85.333v-85.333h85.333v85.333z" />
<glyph unicode="&#xe976;" glyph-name="building-fill_04" d="M1024-64h-1024v768h213.333v-384l298.667 256v-158.037l-77.995-65.237 27.392-32.725 143.659 120.192 162.944 135.808v-158.421l-77.483-64.853 27.349-32.725 196.352 164.267-0.128 0.171 109.909 91.563v-640zM256 192h-85.333v-128h85.333v128zM682.667 192h-85.333v-128h85.333v128zM469.333 192h-85.333v-128h85.333v128zM896 192h-85.333v-128h85.333v128zM128 746.667h-42.667c8.448 93.099 76.16 170.667 149.333 170.667 10.496 0 20.395-2.517 29.141-6.997 13.483 29.312 43.136 49.664 77.525 49.664s64.043-20.352 77.525-49.664c8.747 4.48 18.645 6.997 29.141 6.997 35.328 0 64-28.672 64-64s-28.672-64-64-64c-10.496 0-20.395 2.517-29.141 6.997-13.483-29.312-43.136-49.664-77.525-49.664-100.053 0-158.805 125.909-213.333 0z" />
<glyph unicode="&#xe977;" glyph-name="building-fill_05" d="M469.333 832v128h170.667v-85.333h-128v-42.667h213.333v-128h128v-85.333h128v-597.333h42.667v-85.333h-1024v85.333h42.667v597.333h128v85.333h128v128h170.667zM682.667-21.333v256l-170.667 99.669-170.667-99.669v-256h85.333v213.333l85.333 42.667 85.333-42.667v-213.333h85.333zM896 106.667v85.333h-85.333v-85.333h85.333zM213.333 106.667v85.333h-85.333v-85.333h85.333zM896 277.333v85.333h-85.333v-85.333h85.333zM213.333 277.333v85.333h-85.333v-85.333h85.333zM512 704c70.656 0 128-57.344 128-128s-57.344-128-128-128-128 57.344-128 128 57.344 128 128 128zM896 448v85.333h-85.333v-85.333h85.333zM213.333 448v85.333h-85.333v-85.333h85.333zM512 576h85.333v-42.667h-128v128h42.667v-85.333z" />
<glyph unicode="&#xe978;" glyph-name="building-fill_06" d="M1024-64h-1024v85.333h42.667v554.667c76.501 51.669 148.651 91.861 218.283 120.576 22.784-117.035 127.872-207.531 254.336-205.909 124.331 1.579 226.731 92.459 248.064 207.147 69.803-28.8 141.824-69.419 217.984-121.813v-554.667h42.667v-85.333zM426.667-21.333h170.667v170.667h-170.667v-170.667zM213.333-21.333h170.667v170.667h-170.667v-170.667zM640-21.333h170.667v170.667h-170.667v-170.667zM213.333 234.667h85.333v85.333h-85.333v-85.333zM384 234.667h85.333v85.333h-85.333v-85.333zM554.667 234.667h85.333v85.333h-85.333v-85.333zM725.333 234.667h85.333v85.333h-85.333v-85.333zM213.333 362.667h85.333v85.333h-85.333v-85.333zM384 362.667h85.333v85.333h-85.333v-85.333zM554.667 362.667h85.333v85.333h-85.333v-85.333zM725.333 362.667h85.333v85.333h-85.333v-85.333zM512 960c117.76 0 213.333-95.573 213.333-213.333s-95.573-213.333-213.333-213.333-213.333 95.573-213.333 213.333 95.573 213.333 213.333 213.333zM554.667 874.667h-85.333v-85.333h-85.333v-85.333h85.333v-85.333h85.333v85.333h85.333v85.333h-85.333v85.333z" />
<glyph unicode="&#xe979;" glyph-name="building-fill_07" d="M554.667 874.667h85.333v-85.333h42.667v-810.667h42.667v640l256-128v-512h42.667v-42.667h-1024v42.667h42.667v469.333h298.667v-469.333h42.667v810.667h42.667v85.333h85.333v85.333h42.667v-85.333zM896-21.333v85.333h-85.333v-85.333h85.333zM256-21.333v85.333h-128v-85.333h128zM597.333-21.333v85.333h-128v-85.333h128zM512 149.333v554.667h-42.667v-554.667h42.667zM896 149.333v42.667h-85.333v-42.667h85.333zM128 149.333v85.333h-42.667v-85.333h42.667zM298.667 149.333v85.333h-42.667v-85.333h42.667zM213.333 149.333v85.333h-42.667v-85.333h42.667zM597.333 149.333v554.667h-42.667v-554.667h42.667zM896 234.667v42.667h-85.333v-42.667h85.333zM128 277.333v85.333h-42.667v-85.333h42.667zM213.333 277.333v85.333h-42.667v-85.333h42.667zM298.667 277.333v85.333h-42.667v-85.333h42.667zM896 320v42.667h-85.333v-42.667h85.333zM896 411.264v42.667h-85.333v-42.667h85.333z" />
<glyph unicode="&#xe97a;" glyph-name="building-thin_01" d="M512 874.667h85.333v-85.333h85.333v-157.952l298.667-111.701v-541.013h42.667v-42.667h-1024v42.667h42.667v469.333h256v341.333h85.333v85.333h85.333v85.333h42.667v-85.333zM640 746.667h-298.667v-768h42.667v85.333h213.333v-85.333h42.667v768zM554.667 21.333h-128v-42.667h128v42.667zM896-21.333h42.667v511.445l-256 95.701v-607.147h42.667v85.333h170.667v-85.333zM298.667 405.333h-213.333v-426.667h42.667v85.333h128v-85.333h42.667v426.667zM213.333 21.333h-42.667v-42.667h42.667v42.667zM853.333 21.333h-85.333v-42.667h85.333v42.667zM170.667 234.667v-85.333h-42.667v85.333h42.667zM256 234.667v-85.333h-42.667v85.333h42.667zM469.333 661.333v-512h-42.667v512h42.667zM896 192v-42.667h-170.667v42.667h170.667zM554.667 661.333v-512h-42.667v512h42.667zM896 277.333v-42.667h-170.667v42.667h170.667zM170.667 362.667v-85.333h-42.667v85.333h42.667zM256 362.667v-85.333h-42.667v85.333h42.667zM896 362.667v-42.667h-170.667v42.667h170.667zM896 448v-42.667h-170.667v42.667h170.667zM554.667 832h-128v-42.667h128v42.667z" />
<glyph unicode="&#xe97b;" glyph-name="calendar-bold_01" d="M853.333 106.667h-170.667v170.667h170.667v-170.667zM597.333 533.333h-170.667v-170.667h170.667v170.667zM853.333 533.333h-170.667v-170.667h170.667v170.667zM341.333 277.333h-170.667v-170.667h170.667v170.667zM597.333 277.333h-170.667v-170.667h170.667v170.667zM341.333 533.333h-170.667v-170.667h170.667v170.667zM1024 874.667v-938.667h-1024v938.667h128v-42.667c0-47.061 38.272-85.333 85.333-85.333s85.333 38.272 85.333 85.333v42.667h426.667v-42.667c0-47.061 38.272-85.333 85.333-85.333s85.333 38.272 85.333 85.333v42.667h128zM938.667 618.667h-853.333v-597.333h853.333v597.333zM853.333 917.333c0 23.552-19.072 42.667-42.667 42.667s-42.667-19.115-42.667-42.667v-85.333c0-23.552 19.072-42.667 42.667-42.667s42.667 19.115 42.667 42.667v85.333zM256 832c0-23.552-19.072-42.667-42.667-42.667s-42.667 19.115-42.667 42.667v85.333c0 23.552 19.072 42.667 42.667 42.667s42.667-19.115 42.667-42.667v-85.333z" />
<glyph unicode="&#xe97c;" glyph-name="calendar-bold_02" d="M1024 874.667v-938.667h-1024v938.667h128v-42.667c0-47.061 38.272-85.333 85.333-85.333s85.333 38.272 85.333 85.333v42.667h426.667v-42.667c0-47.061 38.272-85.333 85.333-85.333s85.333 38.272 85.333 85.333v42.667h128zM938.667 618.667h-853.333v-597.333h853.333v597.333zM853.333 917.333c0 23.552-19.072 42.667-42.667 42.667s-42.667-19.115-42.667-42.667v-85.333c0-23.552 19.072-42.667 42.667-42.667s42.667 19.115 42.667 42.667v85.333zM256 832c0-23.552-19.072-42.667-42.667-42.667s-42.667 19.115-42.667 42.667v85.333c0 23.552 19.072 42.667 42.667 42.667s42.667-19.115 42.667-42.667v-85.333zM541.312 256.768c0 34.219-17.835 60.971-47.317 72.32 22.528 11.264 35.669 34.432 35.669 64.128 0 57.429-55.979 91.691-110.123 91.691-63.019 0-110.549-39.467-113.451-117.888h70.187c-0.597 32.469 11.563 56.107 43.733 56.107 19.157 0 39.808-11.605 39.808-37.077 0-32.171-34.816-36.779-66.859-34.005v-54.613c45.525 0 72.704-2.859 72.704-42.027 0-30.891-23.381-44.715-46.549-44.715-35.072 0-49.451 26.197-50.688 61.952h-69.717c-1.365-80.725 47.531-123.307 121.259-123.307 65.835 0 121.344 40.235 121.344 107.435zM725.333 149.333v329.301h-59.392c-7.381-49.237-42.453-63.616-92.629-62.251v-57.429h79.019v-209.621h73.003z" />
<glyph unicode="&#xe97d;" glyph-name="calendar-bold_03" d="M1024 874.667v-938.667h-1024v938.667h128v-42.667c0-47.061 38.272-85.333 85.333-85.333s85.333 38.272 85.333 85.333v42.667h426.667v-42.667c0-47.061 38.272-85.333 85.333-85.333s85.333 38.272 85.333 85.333v42.667h128zM938.667 618.667h-853.333v-597.333h853.333v597.333zM853.333 917.333c0 23.552-19.072 42.667-42.667 42.667s-42.667-19.115-42.667-42.667v-85.333c0-23.552 19.072-42.667 42.667-42.667s42.667 19.115 42.667 42.667v85.333zM256 832c0-23.552-19.072-42.667-42.667-42.667s-42.667 19.115-42.667 42.667v85.333c0 23.552 19.072 42.667 42.667 42.667s42.667-19.115 42.667-42.667v-85.333zM298.667 331.563l36.48 33.749c42.667-20.651 69.76-36.352 117.76-70.571 90.155 102.357 149.803 154.283 260.523 223.189l11.904-27.307c-91.349-79.744-158.251-168.491-254.592-341.291-59.435 69.973-99.072 114.603-172.075 182.229z" />
<glyph unicode="&#xe97e;" glyph-name="calendar-bold_04" d="M725.333 832v85.333c0 23.552 19.072 42.667 42.667 42.667s42.667-19.115 42.667-42.667v-85.333c0-23.552-19.072-42.667-42.667-42.667s-42.667 19.115-42.667 42.667zM213.333 789.333c23.595 0 42.667 19.115 42.667 42.667v85.333c0 23.552-19.072 42.667-42.667 42.667s-42.667-19.115-42.667-42.667v-85.333c0-23.552 19.072-42.667 42.667-42.667zM768 234.667v128h-42.667v-170.667h128v42.667h-85.333zM554.667 213.333c0-105.856 86.144-192 192-192s192 86.144 192 192-86.144 192-192 192-192-86.144-192-192zM1024 213.333c0-153.173-124.16-277.333-277.333-277.333s-277.333 124.16-277.333 277.333 124.16 277.333 277.333 277.333 277.333-124.16 277.333-277.333zM416.555 64h-331.221v554.667h810.667v-75.221c31.019-14.080 59.691-32.299 85.333-54.101v385.323h-128v-42.667c0-56.149-54.528-99.797-113.408-80.811-35.456 11.435-57.259 47.403-57.259 84.651v38.827h-384v-42.667c0-56.149-54.528-99.797-113.408-80.811-35.456 11.435-57.259 47.403-57.259 84.651v38.827h-128v-896h470.656c-21.803 25.643-40.021 54.315-54.101 85.333z" />
<glyph unicode="&#xe97f;" glyph-name="calendar-thin_01" d="M1024-21.333h-1024v810.667h170.667v128h170.667v-128h341.333v128h170.667v-128h170.667v-810.667zM981.333 618.667h-938.667v-597.333h938.667v597.333zM277.291 243.456l44.032 5.461c8.576-39.68 29.568-65.621 70.144-65.621 40.832 0 73.856 29.269 73.856 69.717 0 42.197-36.224 76.331-101.248 60.373l4.907 35.968c38.827-3.84 80.213 14.848 80.213 55.381 0 28.757-22.528 52.224-58.709 52.224-33.749 0-58.197-19.584-64.768-60.16l-44.032 7.296c11.008 56.277 52.352 86.571 107.819 86.571 60.203 0 104.917-38.101 104.917-86.827 0-27.563-15.488-53.12-49.408-67.669 42.368-9.088 66.987-38.997 66.987-82.261 0-62.293-55.211-104.576-120.789-104.576-65.323 0-108.245 40.32-113.92 94.123zM682.667 149.333h-43.989v267.307c-22.144-19.669-57.771-40.405-84.011-49.451v39.637c56.149 24.576 86.869 59.819 99.669 83.84h28.331v-341.333zM981.333 746.667h-938.667v-85.333h938.667v85.333zM298.667 874.667h-85.333v-85.333h85.333v85.333zM810.667 874.667h-85.333v-85.333h85.333v85.333z" />
<glyph unicode="&#xe980;" glyph-name="cart-bold_01" d="M1024 832l-31.701-85.333h-82.304l-148.224-512h-564.864l-196.907 469.333h717.312l-24.064-85.333h-564.907l125.312-298.667h444.928l146.432 512h178.987zM362.667 192c-35.328 0-64-28.672-64-64 0-35.371 28.672-64 64-64s64 28.629 64 64c0 35.328-28.672 64-64 64zM657.067 490.667l-81.067-298.667c-35.328 0-64-28.629-64-64s28.672-64 64-64 64 28.629 64 64c0 35.328-28.672 64-64 64z" />
<glyph unicode="&#xe981;" glyph-name="cart-bold_02" d="M426.667 128c0-35.371-28.672-64-64-64s-64 28.629-64 64c0 35.328 28.672 64 64 64s64-28.672 64-64zM576 192c-35.328 0-64-28.629-64-64s28.672-64 64-64 64 28.629 64 64c0 35.328-28.672 64-64 64zM845.013 832l-146.432-512h-444.928l-161.152 384h-92.501l196.907-469.333h564.864l148.224 512h82.304l31.701 85.333h-178.987z" />
<glyph unicode="&#xe982;" glyph-name="cart-bold_03" d="M468.267 618.667l1.067 21.333c0 22.059-2.859 43.435-7.723 64h255.701l-24.064-85.333h-224.981zM362.667 192c-35.328 0-64-28.672-64-64 0-35.371 28.672-64 64-64s64 28.629 64 64c0 35.328-28.672 64-64 64zM845.013 832l-146.432-512h-444.928l-19.413 46.208c-13.781-2.091-27.861-3.541-42.24-3.541-17.365 0-34.347 1.792-50.816 4.864l55.723-132.864h564.864l148.224 512h82.304l31.701 85.333h-178.987zM576 192c-35.328 0-64-28.629-64-64s28.672-64 64-64 64 28.629 64 64c0 35.328-28.672 64-64 64zM384 640c0-106.027-86.101-192-192-192-105.984 0-192 85.973-192 192s86.016 192 192 192c105.899 0 192-85.973 192-192zM298.667 661.333h-85.333v85.333h-42.667v-85.333h-85.333v-42.667h85.333v-85.333h42.667v85.333h85.333v42.667z" />
<glyph unicode="&#xe983;" glyph-name="cart-bold_04" d="M468.267 618.667l1.067 21.333c0 22.059-2.816 43.435-7.723 64h255.701l-24.064-85.333h-224.981zM362.667 192c-35.328 0-64-28.672-64-64 0-35.371 28.672-64 64-64s64 28.629 64 64c0 35.328-28.672 64-64 64zM845.013 832l-146.432-512h-444.928l-19.413 46.208c-13.824-2.091-27.819-3.541-42.24-3.541-17.365 0-34.347 1.792-50.816 4.864l55.723-132.864h564.864l148.224 512h82.304l31.701 85.333h-178.987zM576 192c-35.328 0-64-28.629-64-64s28.672-64 64-64 64 28.629 64 64c0 35.328-28.672 64-64 64zM384 640c0-106.027-86.101-192-192-192-105.984 0-192 85.973-192 192s86.016 192 192 192c105.899 0 192-85.973 192-192zM298.667 661.333h-213.333v-42.667h213.333v42.667z" />
<glyph unicode="&#xe984;" glyph-name="cart-bold_05" d="M468.267 618.667l1.067 21.333c0 22.059-2.816 43.435-7.723 64h255.701l-24.064-85.333h-224.981zM362.667 192c-35.328 0-64-28.672-64-64 0-35.371 28.672-64 64-64s64 28.629 64 64c0 35.328-28.672 64-64 64zM845.013 832l-146.432-512h-444.928l-19.413 46.208c-13.824-2.091-27.819-3.541-42.24-3.541-17.365 0-34.347 1.792-50.816 4.864l55.723-132.864h564.864l148.224 512h82.304l31.701 85.333h-178.987zM576 192c-35.328 0-64-28.629-64-64s28.672-64 64-64 64 28.629 64 64c0 35.328-28.672 64-64 64zM192 832c-106.069 0-192-85.973-192-192s85.931-192 192-192c105.984 0 192 85.973 192 192s-86.016 192-192 192zM171.989 555.349l-71.979 69.803 29.653 29.739 42.325-40.107 90.24 92.544 29.739-29.696-119.979-122.283z" />
<glyph unicode="&#xe985;" glyph-name="cart-bold_06" d="M468.267 618.667l1.067 21.333c0 22.059-2.859 43.435-7.723 64h255.701l-24.064-85.333h-224.981zM362.667 192c-35.328 0-64-28.672-64-64 0-35.371 28.672-64 64-64s64 28.629 64 64c0 35.328-28.672 64-64 64zM845.013 832l-146.432-512h-444.928l-19.413 46.208c-13.781-2.091-27.861-3.541-42.24-3.541-17.365 0-34.347 1.792-50.816 4.864l55.723-132.864h564.864l148.224 512h82.304l31.701 85.333h-178.987zM576 192c-35.328 0-64-28.629-64-64s28.672-64 64-64 64 28.629 64 64c0 35.328-28.672 64-64 64zM384 640c0-106.027-86.059-192-192-192s-192 85.973-192 192 86.059 192 192 192 192-85.973 192-192zM252.331 730.539l-60.331-60.331-60.331 60.331-30.165-30.165 60.331-60.373-60.331-60.331 30.165-30.208 60.331 60.373 60.331-60.331 30.208 30.208-60.331 60.288 60.331 60.331-30.208 30.208z" />
<glyph unicode="&#xe986;" glyph-name="cart-fill_01" d="M426.667 128c0-35.371-28.672-64-64-64s-64 28.629-64 64c0 35.328 28.672 64 64 64s64-28.672 64-64zM576 192c-35.328 0-64-28.629-64-64s28.672-64 64-64 64 28.629 64 64c0 35.328-28.672 64-64 64zM844.971 832l-146.389-512h-89.685l108.459 384h-717.355l196.907-469.333h564.864l148.224 512h82.304l31.701 85.333h-179.029z" />
<glyph unicode="&#xe987;" glyph-name="cart-fill_02" d="M426.667 128c0-35.371-28.672-64-64-64s-64 28.629-64 64c0 35.328 28.672 64 64 64s64-28.672 64-64zM576 192c-35.328 0-64-28.629-64-64s28.672-64 64-64 64 28.629 64 64c0 35.328-28.672 64-64 64zM633.003 405.333l84.352 298.667h-717.355l125.355-298.667h507.648zM845.013 832l-146.432-512h-537.472l35.797-85.333h564.864l148.224 512h82.304l31.701 85.333h-178.987z" />
<glyph unicode="&#xe988;" glyph-name="cart-fill_03" d="M426.667 128c0-35.371-28.672-64-64-64s-64 28.629-64 64c0 35.328 28.672 64 64 64s64-28.672 64-64zM844.971 832l-146.389-512h-89.685l108.459 384h-255.701c4.821-20.565 7.68-41.941 7.68-64 0-153.173-124.16-277.333-277.333-277.333-17.365 0-34.347 1.792-50.816 4.864l55.723-132.864h564.864l148.224 512h82.304l31.701 85.333h-179.029zM576 192c-35.328 0-64-28.629-64-64s28.672-64 64-64 64 28.629 64 64c0 35.328-28.672 64-64 64zM384 640c0-106.027-86.101-192-192-192-105.984 0-192 85.973-192 192s86.016 192 192 192c105.899 0 192-85.973 192-192zM298.667 661.333h-85.333v85.333h-42.667v-85.333h-85.333v-42.667h85.333v-85.333h42.667v85.333h85.333v42.667z" />
<glyph unicode="&#xe989;" glyph-name="cart-fill_04" d="M426.667 128c0-35.371-28.672-64-64-64s-64 28.629-64 64c0 35.328 28.672 64 64 64s64-28.672 64-64zM845.013 832l-146.432-512h-89.685l108.416 384h-255.701c4.907-20.565 7.723-41.941 7.723-64 0-153.173-124.16-277.333-277.333-277.333-17.365 0-34.347 1.792-50.816 4.864l55.723-132.864h564.864l148.224 512h82.304l31.701 85.333h-178.987zM576 192c-35.328 0-64-28.629-64-64s28.672-64 64-64 64 28.629 64 64c0 35.328-28.672 64-64 64zM384 640c0-106.027-86.101-192-192-192-105.984 0-192 85.973-192 192s86.016 192 192 192c105.899 0 192-85.973 192-192zM298.667 661.333h-213.333v-42.667h213.333v42.667z" />
<glyph unicode="&#xe98a;" glyph-name="cart-fill_05" d="M426.667 128c0-35.371-28.672-64-64-64s-64 28.629-64 64c0 35.328 28.672 64 64 64s64-28.672 64-64zM845.013 832l-146.432-512h-89.685l108.416 384h-255.701c4.907-20.565 7.723-41.941 7.723-64 0-153.173-124.16-277.333-277.333-277.333-17.365 0-34.347 1.792-50.816 4.864l55.723-132.864h564.864l148.224 512h82.304l31.701 85.333h-178.987zM576 192c-35.328 0-64-28.629-64-64s28.672-64 64-64 64 28.629 64 64c0 35.328-28.672 64-64 64zM192 832c-106.069 0-192-85.973-192-192s85.931-192 192-192c105.984 0 192 85.973 192 192s-86.016 192-192 192zM171.989 555.349l-71.979 69.803 29.653 29.739 42.325-40.107 90.24 92.544 29.739-29.696-119.979-122.283z" />
<glyph unicode="&#xe98b;" glyph-name="cart-fill_06" d="M426.667 128c0-35.371-28.672-64-64-64s-64 28.629-64 64c0 35.328 28.672 64 64 64s64-28.672 64-64zM844.971 832l-146.389-512h-89.685l108.459 384h-255.701c4.821-20.565 7.68-41.941 7.68-64 0-153.173-124.16-277.333-277.333-277.333-17.365 0-34.347 1.792-50.816 4.864l55.723-132.864h564.864l148.224 512h82.304l31.701 85.333h-179.029zM576 192c-35.328 0-64-28.629-64-64s28.672-64 64-64 64 28.629 64 64c0 35.328-28.672 64-64 64zM384 640c0-106.027-86.059-192-192-192s-192 85.973-192 192 86.059 192 192 192 192-85.973 192-192zM252.331 730.539l-60.331-60.331-60.331 60.331-30.165-30.165 60.331-60.373-60.331-60.331 30.165-30.208 60.331 60.373 60.331-60.331 30.208 30.208-60.331 60.288 60.331 60.331-30.208 30.208z" />
<glyph unicode="&#xe98c;" glyph-name="cart-thin_01" d="M576 64c-11.776 0-21.333 9.557-21.333 21.333s9.557 21.333 21.333 21.333 21.333-9.557 21.333-21.333-9.557-21.333-21.333-21.333zM576 149.333c-35.328 0-64-28.672-64-64s28.672-64 64-64 64 28.672 64 64-28.672 64-64 64zM320 64c-11.776 0-21.333 9.557-21.333 21.333s9.557 21.333 21.333 21.333 21.333-9.557 21.333-21.333-9.557-21.333-21.333-21.333zM320 149.333c-35.328 0-64-28.672-64-64s28.672-64 64-64 64 28.672 64 64-28.672 64-64 64zM1024 832h-126.464l-155.392-640h-568.363l-173.781 554.795h832.939l31.061 127.872h160v-42.667zM60.544 704.128l144.768-469.461h503.211l114.091 469.461h-762.069z" />
<glyph unicode="&#xe98d;" glyph-name="device-fill_01" d="M578.688-64h-493.355c-47.104 0-85.333 38.229-85.333 85.333v853.333c0 47.104 38.229 85.333 85.333 85.333h597.333c47.104 0 85.333-38.229 85.333-85.333v-170.667h-85.333v128h-597.333v-725.333h469.333v-106.667c0-22.357 7.765-50.133 24.021-64zM960 661.333c35.328 0 64-28.672 64-64v-597.333c0-35.243-28.629-64-64-64h-298.667c-35.371 0-64 28.8-64 64v597.333c0 35.285 28.715 64 64 64h298.667zM384 64c23.552 0 42.667-19.115 42.667-42.667s-19.115-42.667-42.667-42.667-42.667 19.115-42.667 42.667 19.115 42.667 42.667 42.667zM810.667-21.333c-23.595 0-42.667 19.115-42.667 42.667s19.072 42.667 42.667 42.667c23.552 0 42.624-19.115 42.624-42.667s-19.072-42.667-42.624-42.667zM981.333 106.667v427.691h-341.333v-427.691h341.333zM832 576c11.733 0 21.333 9.557 21.333 21.333s-9.6 21.333-21.333 21.333h-42.667c-11.776 0-21.333-9.557-21.333-21.333s9.557-21.333 21.333-21.333h42.667z" />
<glyph unicode="&#xe98e;" glyph-name="device-fill_02" d="M938.667 533.333h-42.667v85.333h-469.333v-554.667h213.333v-68.992c0-22.357 5.163-45.141 21.419-59.008h-213.419c-16.981 0-33.237 6.741-45.269 18.731-11.989 12.032-18.731 28.288-18.731 45.269v640c0 16.981 6.741 33.237 18.731 45.269 12.032 11.989 28.288 18.731 45.269 18.731h426.667c16.981 0 33.237-6.741 45.269-18.731 11.989-12.032 18.731-28.288 18.731-45.269v-106.667zM1024 437.333c0 29.44-23.893 53.333-53.333 53.333h-234.667c-29.44 0-53.333-23.893-53.333-53.333v-448c0-29.44 23.893-53.333 53.333-53.333h234.667c29.44 0 53.333 23.893 53.333 53.333v448zM366.635-64h-281.301l110.891 128h145.109v-76.971c0-24.704 14.379-46.507 25.301-51.029zM853.333-21.333c-23.595 0-42.667 19.115-42.667 42.667s19.072 42.667 42.667 42.667c23.552 0 42.624-19.115 42.624-42.667s-19.072-42.667-42.624-42.667zM981.333 106.667v257.024h-256v-257.024h256zM896 746.667h-85.333v128h-725.333v-640h256v-85.333h-341.333v810.667h896v-213.333zM874.667 448h-42.667c-11.776 0-21.333-9.557-21.333-21.333s9.557-21.333 21.333-21.333h42.667c11.733 0 21.333 9.557 21.333 21.333s-9.6 21.333-21.333 21.333z" />
<glyph unicode="&#xe98f;" glyph-name="door-fill_01" d="M853.333-21.333h85.333v-42.667h-853.333v42.667h85.333v981.333h682.667v-981.333zM384 448h-128v-42.667h128v42.667z" />
<glyph unicode="&#xe990;" glyph-name="door-fill_02" d="M853.333-21.333h85.333v-42.667h-853.333v42.667h85.333v981.333h682.667v-981.333zM810.667 917.333h-597.333v-938.667h597.333l-426.667 83.371v768.64l426.667 86.656zM512 448h-85.333v-42.667h85.333v42.667z" />
<glyph unicode="&#xe991;" glyph-name="door-fill_03" d="M554.667 874.667v85.333l426.667-128v-768l-426.667-128v85.333h-384v298.667h42.667v-256h341.333v768h-341.333v-298.667h-42.667v341.333h384zM428.928 448l-140.501 140.501 30.165 30.165 192-192-192-192-30.165 30.165 140.501 140.501h-386.261v42.667h386.261z" />
<glyph unicode="&#xe992;" glyph-name="door-fill_04" d="M469.333 64h341.333v85.333l42.667 42.667v-170.667h-384v-85.333l-426.667 128v768l426.667 128v-85.333h384v-213.333l-42.667 42.667v128h-341.333v-768zM898.261 448l-140.501 140.501 30.165 30.165 192-192-192-192-30.165 30.165 140.501 140.501h-386.261v42.667h386.261z" />
<glyph unicode="&#xe993;" glyph-name="download-bold_01" d="M597.333 874.667v-469.333h107.093l-192.427-213.76-192.427 213.76h107.093v469.333h170.667zM682.667 960h-341.333v-469.333h-213.333l384-426.667 384 426.667h-213.333v469.333zM810.667 149.333v-128h-597.333v128h-85.333v-213.333h768v213.333h-85.333z" />
<glyph unicode="&#xe994;" glyph-name="download-bold_02" d="M512 746.667c147.328 0 251.349-119.339 237.525-289.28 74.453 1.963 189.141-32.043 189.141-158.72 0-82.347-66.987-149.333-149.333-149.333h-554.667c-82.347 0-149.333 66.987-149.333 149.333 0 119.339 105.771 163.541 189.141 158.72-7.125 179.968 94.208 289.28 237.525 289.28zM512 832c-170.923 0-310.059-134.016-319.104-302.592-109.653-19.755-192.896-115.456-192.896-230.741 0-129.579 105.088-234.667 234.667-234.667h554.667c129.579 0 234.667 105.088 234.667 234.667 0 115.285-83.243 210.987-192.896 230.741-9.045 168.576-148.181 302.592-319.104 302.592zM341.333 405.333h128v170.667h85.333v-170.667h128l-170.667-170.667-170.667 170.667z" />
<glyph unicode="&#xe995;" glyph-name="download-bold_03" d="M341.333 106.667h128v213.333h85.333v-213.333h128l-170.667-170.667-170.667 170.667zM831.104 657.408c-9.045 168.576-148.181 302.592-319.104 302.592s-310.059-134.016-319.104-302.592c-109.653-19.755-192.896-115.456-192.896-230.741 0-129.579 105.088-234.667 234.667-234.667h149.333v85.333h-149.333c-82.347 0-149.333 66.987-149.333 149.333 0 119.339 105.771 163.541 189.141 158.72-7.125 179.968 94.208 289.28 237.525 289.28 147.328 0 251.349-119.339 237.525-289.28 74.453 1.963 189.141-32.043 189.141-158.72 0-82.347-66.987-149.333-149.333-149.333h-149.333v-85.333h149.333c129.579 0 234.667 105.088 234.667 234.667 0 115.285-83.243 210.987-192.896 230.741z" />
<glyph unicode="&#xe996;" glyph-name="download-fill_01" d="M682.667 490.667h213.333l-384-426.667-384 426.667h213.333v469.333h341.333v-469.333zM725.333 21.333h-426.667v-85.333h426.667v85.333z" />
<glyph unicode="&#xe997;" glyph-name="download-fill_02" d="M682.667 490.667h213.333l-384-426.667-384 426.667h213.333v469.333h341.333v-469.333zM810.667 149.333v-128h-597.333v128h-85.333v-213.333h768v213.333h-85.333z" />
<glyph unicode="&#xe998;" glyph-name="download-fill_03" d="M384 874.667h256v-42.667h-256v42.667zM640 917.333v42.667h-256v-42.667h256zM420.437 21.333l-79.104-85.333h341.333l-79.104 85.333h-183.125zM853.333 618.667h-213.333v170.667h-256v-170.667h-213.333l341.333-341.333 341.333 341.333zM768 149.333h-512v263.339l-85.333 85.333v-434.005h682.667v434.005l-85.333-85.333v-263.339z" />
<glyph unicode="&#xe999;" glyph-name="download-fill_04" d="M298.667 874.667v85.333h426.667v-85.333h-426.667zM298.667 704h426.667v85.333h-426.667v-85.333zM725.333 405.333v213.333h-426.667v-213.333h-256l469.333-469.333 469.333 469.333h-256z" />
<glyph unicode="&#xe99a;" glyph-name="download-fill_05" d="M831.104 529.408c-9.045 168.576-148.181 302.592-319.104 302.592-170.88 0-310.059-134.016-319.104-302.592-109.653-19.755-192.896-115.456-192.896-230.741 0-129.579 105.088-234.667 234.667-234.667h554.667c129.579 0 234.667 105.088 234.667 234.667 0 115.285-83.243 210.987-192.896 230.741zM512 234.667l-170.667 170.667h128v170.667h85.333v-170.667h128l-170.667-170.667z" />
<glyph unicode="&#xe99b;" glyph-name="download-fill_06" d="M512 64l-341.333 384h256v512h170.667v-512h256l-341.333-384zM896 106.667v-85.333h-768v85.333h-85.333v-170.667h938.667v170.667h-85.333z" />
<glyph unicode="&#xe99c;" glyph-name="download-fill_07" d="M981.333-64v853.333h-341.333v-85.333h256v-682.667h-768v682.667h256v85.333h-341.333v-853.333h938.667zM469.333 490.667h-170.667l213.333-256 213.333 256h-170.667v469.333h-85.333v-469.333z" />
<glyph unicode="&#xe99d;" glyph-name="download-fill_08" d="M640 533.333h170.667l-298.667-341.333-298.667 341.333h170.667v426.667h256v-426.667zM777.088 885.163l-51.755-68.224c127.317-73.899 213.333-211.413 213.333-368.939 0-235.264-191.403-426.667-426.667-426.667s-426.667 191.403-426.667 426.667c0 157.525 86.016 295.040 213.333 368.939l-51.755 68.224c-147.84-89.728-246.912-251.605-246.912-437.163 0-282.752 229.248-512 512-512s512 229.248 512 512c0 185.557-99.072 347.435-246.912 437.163z" />
<glyph unicode="&#xe99e;" glyph-name="download-thin_01" d="M490.667 618.667h42.667v-333.909l106.667 131.243 32.128-28.373-160.128-195.627-159.445 194.517 31.445 28.885 106.667-130.731v333.995zM789.333 106.667h-554.667c-105.856 0-192 86.144-192 192 0 92.928 66.347 172.288 157.781 188.757l33.237 5.973 1.835 33.707c7.893 147.072 129.323 262.229 276.48 262.229s268.587-115.157 276.437-262.229l1.835-33.707 33.28-5.973c91.392-16.469 157.781-95.829 157.781-188.757 0-105.856-86.144-192-192-192zM831.104 529.408c-9.045 168.576-148.181 302.592-319.104 302.592s-310.059-134.016-319.104-302.592c-109.653-19.755-192.896-115.456-192.896-230.741 0-129.579 105.088-234.667 234.667-234.667h554.667c129.579 0 234.667 105.088 234.667 234.667 0 115.285-83.243 210.987-192.896 230.741z" />
<glyph unicode="&#xe99f;" glyph-name="download-thin_02" d="M723.84 858.411c153.301-83.029 257.493-245.291 257.493-431.744 0-270.805-219.861-490.667-490.667-490.667s-490.667 219.861-490.667 490.667c0 186.453 104.192 348.715 257.493 431.744l25.941-34.517c-143.061-74.88-240.768-224.725-240.768-397.227 0-247.253 200.747-448 448-448s448 200.747 448 448c0 172.501-97.707 322.347-240.768 397.227l25.941 34.517zM512 960v-632.576l159.872 196.437 32.128-28.416-213.333-260.779-213.333 260.309 31.445 28.971 160.555-196.608v632.661h42.667z" />
<glyph unicode="&#xe9a0;" glyph-name="email-bold_01" d="M0 832v-768h1024v768h-1024zM282.581 493.696l-197.248-243.712v403.541l197.248-159.829zM105.899 746.667h812.16l-406.059-329.088-406.101 329.088zM348.843 439.979l163.157-132.224 163.413 132.437 239.445-290.859h-801.237l235.221 290.645zM741.717 493.909l196.949 159.616v-398.848l-196.949 239.232z" />
<glyph unicode="&#xe9a1;" glyph-name="email-bold_02" d="M0 832v-768h1024v768h-1024zM918.101 746.667l-406.101-329.088-406.101 329.088h812.203zM85.333 149.333v504.192l426.667-345.771 426.667 345.771v-504.192h-853.333z" />
<glyph unicode="&#xe9a2;" glyph-name="email-bold_03" d="M0 448l469.333-132.267 298.667 345.6-347.989-242.005-183.979 51.285 655.445 327.68-169.557-621.653-160 142.464-92.587-124.8v32.811l-85.333 23.893v-315.008l190.848 257.323 193.152-171.989 256 938.667z" />
<glyph unicode="&#xe9a3;" glyph-name="email-bold_04" d="M625.749 604.416v-156.416l62.421 94.507-62.421 61.909zM493.824 426.624c28.16 16.384 52.992 36.864 75.008 61.739v-58.411c-18.987-16.768-39.509-31.189-61.824-43.435l-13.184 40.107zM354.944 339.541c-27.819-3.541-66.987-5.333-98.944-5.333v41.387c29.355 0 66.176 1.579 91.819 4.821l7.125-40.875zM473.941 370.475l-1.536-0.64c-25.003-10.496-52.053-18.645-81.493-24.448l-7.125 40.875c27.947 5.589 53.632 13.44 77.184 23.723l12.971-39.509zM938.667 960l-128-469.333-173.397 154.453 166.4 175.659-223.104-154.197-153.899 37.419 512 256zM810.027 329.429c0-193.963-246.485-393.429-350.763-393.429h-373.931v938.667h491.819l-170.667-85.333h-235.819v-768h253.355c177.28 0 112.555 256 112.555 256 142.891-39.296 256.128-17.195 256.128 136.96 11.947-27.733 17.323-56.235 17.323-84.864z" />
<glyph unicode="&#xe9a4;" glyph-name="email-fill_01" d="M512 417.579l-511.36 414.421h1022.763l-511.403-414.421zM280.533 495.317l-280.533 227.371v-533.376l280.533 306.005zM743.467 495.317l280.533-306.005v533.376l-280.533-227.371zM677.035 441.515l-165.035-133.76-165.035 133.76-346.027-377.515h1022.123l-346.027 377.515z" />
<glyph unicode="&#xe9a5;" glyph-name="email-fill_02" d="M512 417.579l-511.36 414.421h1022.72l-511.36-414.421zM512 307.755l-512 414.933v-658.688h1024v658.688l-512-414.933z" />
<glyph unicode="&#xe9a6;" glyph-name="email-fill_03" d="M1.109-64l510.891 495.232 510.891-495.232h-1021.781zM511.573 958.336l-511.573-372.267v-532.309l313.685 304.085-241.195 175.488 439.083 319.488 439.851-319.488-241.28-175.275 313.856-304.299v532.309l-512.427 372.267z" />
<glyph unicode="&#xe9a7;" glyph-name="email-fill_04" d="M810.667 573.355s-221.355 14.208-298.667-82.688c85.333 208.896 298.667 253.355 298.667 253.355v85.333l213.333-170.667-213.333-171.477v86.144zM1.109-64h1021.739l-510.848 495.232-510.891-495.232zM72.491 533.333l439.083 319.488 130.261-94.635c30.379 19.584 59.349 34.347 83.328 44.971l-213.589 155.179-511.573-372.267v-532.309l313.685 304.085-241.195 175.488zM744.619 324.608l279.381-270.848v495.445l-279.381-224.597z" />
<glyph unicode="&#xe9a8;" glyph-name="email-fill_05" d="M1024-21.333v566.4l-85.333 61.995v310.272h-853.333v-310.187l-85.333-62.080v-566.4h1024zM170.667 425.472v406.528h682.667v-406.485l-341.333-233.515-341.333 233.472zM768 448v42.667h-512v-42.667h512zM768 576h-512v-42.667h512v42.667zM469.333 618.667v128h-213.333v-128h213.333zM768 618.667v42.667h-256v-42.667h256zM768 704v42.667h-256v-42.667h256z" />
<glyph unicode="&#xe9a9;" glyph-name="email-fill_06" d="M1024 960l-256-938.667-346.837 308.864 332.885 351.317-446.208-308.352-307.84 74.837 1024 512zM384 248.832v-312.832l139.008 189.056-139.008 123.776z" />
<glyph unicode="&#xe9aa;" glyph-name="email-fill_07" d="M981.333 960l-192-704-260.139 231.68 249.685 263.467-334.677-231.296-230.869 56.149 768 384zM512 426.624v-234.624l93.568 141.781-93.568 92.843zM140.885 135.424l-61.397 21.632 243.243 222.507 61.269-16.896-243.115-227.243zM280.064-47.488l-56.448 24.107 189.397 192.128 56.32-19.413-189.269-196.821zM105.856-64l-63.189 21.632 341.333 336.64 61.312-16.939-339.456-341.333z" />
<glyph unicode="&#xe9ab;" glyph-name="email-fill_08" d="M341.845 282.624v-175.957l74.027 109.995-74.027 65.963zM170.069 32.128c-27.52-17.28-55.936-32.64-84.736-45.611l20.992-50.517c28.8 12.928 57.301 28.075 84.992 45.056l-21.248 51.072zM298.667 134.827c-25.173-24.789-53.461-49.963-82.432-71.253l21.547-51.797c20.779 14.763 41.685 32.341 60.885 48.896v74.155zM682.667 704l-136.32-542.549-184.704 164.48 177.237 187.093-237.568-164.224-163.968 39.851 545.323 315.349zM597.333 703.957l-40.277-23.296c-1.451 7.595-2.389 15.317-2.389 23.339 0 70.571 57.429 128 128 128s128-57.429 128-128c0-66.432-51.029-120.576-115.883-126.763l11.349 45.141c35.627 10.24 61.867 42.709 61.867 81.621 0 47.104-38.229 85.333-85.333 85.333s-85.333-38.229-85.333-85.376zM938.667 704c0-141.355-114.645-256-256-256l-20.096 1.024 21.205 84.437c93.611 0.64 169.557 76.843 169.557 170.539 0 94.123-76.544 170.667-170.667 170.667s-170.667-76.544-170.667-170.667c0-15.829 2.859-30.848 6.912-45.397l-75.904-43.904c-10.368 27.861-16.341 57.856-16.341 89.301 0 141.355 114.645 256 256 256s256-114.645 256-256z" />
<glyph unicode="&#xe9ac;" glyph-name="facebook-fill_01" d="M384 618.667h-128v-170.667h128v-512h213.333v512h155.392l15.275 170.667h-170.667v71.125c0 40.747 8.192 56.875 47.573 56.875h123.093v213.333h-162.475c-153.429 0-221.525-67.541-221.525-196.907v-144.427z" />
<glyph unicode="&#xe9ad;" glyph-name="facebook-fill_02" d="M905.216 618.667h-94.549v74.667l42.667 132.053v134.613h-223.829c-92.075-271.744-181.419-426.325-288.171-426.667v42.667h-341.333v-554.667h341.333v42.667h85.333l106.965-85.333h361.003l129.365 124.843v437.803l-118.784 77.355zM938.667 139.733l-78.464-75.733h-296.704l-106.965 85.333h-115.2v298.667c161.323 0 287.019 242.091 349.397 426.667h77.269v-33.749l-42.667-132.053v-175.531h154.581l58.752-38.272v-355.328z" />
<glyph unicode="&#xe9ae;" glyph-name="facebook-fill_03" d="M512 960c-282.752 0-512-212.267-512-474.069 0-149.205 74.453-282.283 190.805-369.152v-180.779l174.336 95.659c46.507-12.843 95.829-19.797 146.859-19.797 282.752 0 512 212.224 512 474.069 0 261.803-229.248 474.069-512 474.069zM562.901 321.579l-130.389 139.051-254.421-139.051 279.851 297.088 133.547-139.051 251.264 139.051-279.851-297.088z" />
<glyph unicode="&#xe9af;" glyph-name="file-bold_01" d="M484.779 874.667c177.323 0 112.555-256 112.555-256s256 70.4 256-104.832v-492.501h-682.667v853.333h314.112zM520.064 960h-434.731v-1024h853.333v613.803c0 102.016-283.648 410.197-418.603 410.197z" />
<glyph unicode="&#xe9b0;" glyph-name="file-bold_02" d="M554.667 704c148.011 0 85.333-213.333 85.333-213.333s213.333 68.011 213.333-85.333v-384h-512v682.667h213.333zM589.952 789.333h-333.952v-853.333h682.667v505.259c0 102.059-213.803 348.075-348.715 348.075zM597.333 874.667l-128 85.333h-384v-938.667h85.333v853.333h426.667z" />
<glyph unicode="&#xe9b1;" glyph-name="file-bold_03" d="M789.333 320c-105.941 0-192-85.973-192-192s86.059-192 192-192 192 85.973 192 192-86.059 192-192 192zM896 106.667h-85.333v-85.333h-42.667v85.333h-85.333v42.667h85.333v85.333h42.667v-85.333h85.333v-42.667zM589.653-64h-546.987v1024h434.731c134.955 0 418.603-308.181 418.603-410.197v-165.845c-26.624 11.136-55.339 18.005-85.333 20.309v109.611c0 175.189-256 104.789-256 104.789s64.768 256-112.555 256h-314.112v-853.333h405.376c13.355-31.957 32.64-60.757 56.277-85.333z" />
<glyph unicode="&#xe9b2;" glyph-name="file-bold_04" d="M981.333 234.667h-128v128h-85.333v-128h-128v-85.333h128v-128h85.333v128h128v85.333zM682.667 21.333v-85.333h-640v1024h434.731c134.955 0 418.603-308.181 418.603-410.197v-101.803h-85.333v65.835c0 175.232-256 104.832-256 104.832s64.768 256-112.555 256h-314.112v-853.333h554.667z" />
<glyph unicode="&#xe9b3;" glyph-name="file-bold_05" d="M789.333 320c-105.941 0-192-85.973-192-192s86.059-192 192-192 192 85.973 192 192-86.059 192-192 192zM896 106.667h-213.333v42.667h213.333v-42.667zM589.653-64h-546.987v1024h434.731c134.955 0 418.603-308.181 418.603-410.197v-165.845c-26.581 11.136-55.339 18.005-85.333 20.309v109.611c0 175.189-256 104.789-256 104.789s64.768 256-112.555 256h-314.112v-853.333h405.419c13.312-31.957 32.597-60.757 56.235-85.333z" />
<glyph unicode="&#xe9b4;" glyph-name="file-bold_06" d="M484.779 874.667c177.323 0 112.555-256 112.555-256s256 70.4 256-104.832v-492.501h-682.667v853.333h314.112zM520.064 960h-434.731v-1024h853.333v613.803c0 102.016-283.648 410.197-418.603 410.197zM725.333 405.333h-426.667v42.667h426.667v-42.667zM725.333 320h-426.667v-42.667h426.667v42.667zM597.333 192h-298.667v-42.667h298.667v42.667z" />
<glyph unicode="&#xe9b5;" glyph-name="file-bold_07" d="M484.779 874.667c177.323 0 112.555-256 112.555-256s256 70.4 256-104.832v-492.501h-682.667v853.333h314.112zM520.064 960h-434.731v-1024h853.333v613.803c0 102.016-283.648 410.197-418.603 410.197zM725.333 405.333h-426.667v42.667h426.667v-42.667zM725.333 320h-426.667v-42.667h426.667v42.667zM725.333 192h-426.667v-42.667h426.667v42.667z" />
<glyph unicode="&#xe9b6;" glyph-name="file-bold_08" d="M484.779 874.667c177.323 0 112.555-256 112.555-256s256 70.4 256-104.832v-492.501h-682.667v853.333h314.112zM520.064 960h-434.731v-1024h853.333v613.803c0 102.016-283.648 410.197-418.603 410.197zM298.667 426.667c0 35.328 28.672 64 64.043 64 35.285 0 63.957-28.672 63.957-64s-28.672-64-63.957-64c-35.371 0-64.043 28.672-64.043 64zM576 405.333l-89.301-126.635-55.893 41.301-132.139-170.667h426.667l-149.333 256z" />
<glyph unicode="&#xe9b7;" glyph-name="file-bold_09" d="M484.779 874.667c177.323 0 112.555-256 112.555-256s256 70.4 256-104.832v-492.501h-682.667v853.333h314.112zM520.064 960h-434.731v-1024h853.333v613.803c0 102.016-283.648 410.197-418.603 410.197zM682.624 490.667l-255.957-50.987v-185.344c-48.128 9.6-97.067-33.237-82.816-73.515 18.773-53.248 125.397-37.163 125.44 34.603v148.011l170.709 40.747v-124.245c-48.171 9.515-96.384-33.237-82.176-73.6 18.773-53.163 124.672-37.163 124.8 34.645v249.685z" />
<glyph unicode="&#xe9b8;" glyph-name="file-bold_10" d="M484.779 874.667c177.323 0 112.555-256 112.555-256s256 70.4 256-104.832v-492.501h-682.667v853.333h314.112zM520.064 960h-434.731v-1024h853.333v613.803c0 102.016-283.648 410.197-418.603 410.197zM384 192v299.52l256-150.485-256-149.035z" />
<glyph unicode="&#xe9b9;" glyph-name="file-bold_11" d="M484.821 874.667c177.28 0 112.512-256 112.512-256s256 70.4 256-104.832v-492.501h-682.667v853.333h314.155zM520.064 960h-434.731v-1024h853.333v613.803c0 102.016-283.648 410.197-418.603 410.197zM725.333 405.333h-112.128v-157.269h38.699v62.805h63.573v31.232h-63.573v29.781h73.429v33.451zM516.267 405.333h-68.224v-157.269h68.224c22.912 0 41.003 7.723 53.845 22.827 23.68 28.075 25.045 86.784-2.645 114.859-12.715 12.8-30.379 19.584-51.2 19.584zM486.741 371.925h21.163c20.181 0 34.219-7.381 39.040-27.477 2.731-11.392 3.285-28.971-0.896-40.448-5.461-14.976-16.256-22.528-32.171-22.528h-27.179v90.453zM369.835 405.333h-71.168v-157.269h38.699v54.485h32.469c26.411 0 45.397 11.819 52.224 32.555 4.053 12.416 4.053 25.472 0 37.76-6.827 20.651-25.856 32.469-52.224 32.469zM337.365 374.101h23.296c10.027 0 19.925-1.195 24.576-9.728 2.859-5.248 2.859-15.616 0-20.864-4.651-8.491-14.549-9.685-24.576-9.685h-23.296v40.277z" />
<glyph unicode="&#xe9ba;" glyph-name="file-bold_12" d="M484.779 874.667c177.323 0 112.555-256 112.555-256s256 70.4 256-104.832v-492.501h-682.667v853.333h314.112zM520.064 960h-434.731v-1024h853.333v613.803c0 102.016-283.648 410.197-418.603 410.197zM360.448 223.531c14.763 13.952 39.765 27.605 74.325 40.704 15.616 30.933 31.189 64.981 43.435 95.232-10.325 21.589-16.939 44.331-19.797 67.755-10.667 87.936 88.875 81.365 73.771-0.512-2.901-15.701-9.813-37.717-20.608-65.536 15.659-27.904 36.224-48.896 52.608-62.805 22.357 3.584 54.229 7.253 76.672 3.968 59.563-8.747 52.011-74.411-0.896-74.411-27.691 0-62.421 21.632-84.139 38.229-33.237-6.144-68.821-15.573-99.413-26.368-9.771-18.773-22.869-42.709-34.603-59.563-48.768-70.229-113.067-5.419-61.355 43.307zM411.605 221.184c-10.795-5.461-25.984-14.848-34.176-23.851-12.757-13.995-4.395-25.003 10.965-9.941 7.595 7.339 16.725 20.992 23.211 33.792zM601.045 272.427c10.027-6.741 23.808-13.781 38.869-14.080 17.579-0.341 16.085 11.136-3.499 13.995-8.533 1.28-20.821 1.28-35.371 0.085zM475.307 277.888c13.995 4.651 44.203 11.691 51.755 13.44-0.853 0.896-22.528 23.211-29.653 35.499-5.717-14.293-21.717-48.085-22.101-48.939zM488.704 447.829c-2.432-12.629 1.237-32.896 5.504-45.269 4.821 10.112 10.88 34.389 8.405 46.293-2.389 11.904-11.179 12.757-13.909-1.024z" />
<glyph unicode="&#xe9bb;" glyph-name="file-bold_13" d="M760.533-64h-675.2v1024h434.731c134.912 0 418.603-308.181 418.603-410.197v-429.696l-85.333 85.333v308.395c0 175.232-256 104.832-256 104.832s64.725 256-112.555 256h-314.112v-853.333h504.533l85.333-85.333zM674.091 143.275c-34.091-23.125-75.179-36.608-119.424-36.608-117.76 0-213.333 95.573-213.333 213.333s95.573 213.333 213.333 213.333 213.333-95.573 213.333-213.333c0-42.667-12.544-82.432-34.176-115.797l204.843-207.872-60.331-60.331-204.245 207.275zM554.667 448c70.656 0 128-57.344 128-128s-57.344-128-128-128-128 57.344-128 128 57.344 128 128 128z" />
<glyph unicode="&#xe9bc;" glyph-name="file-bold_14" d="M938.667-64h-853.333v1024h434.731c134.912 0 418.603-308.181 418.603-410.197v-613.803zM484.779 874.667h-314.112v-853.333h682.667v492.501c0 175.232-256 104.832-256 104.832s64.725 256-112.555 256zM512 362.667h-213.333l42.667 213.333 59.52-74.411c32.427 19.925 70.315 31.744 111.147 31.744 117.76 0 213.333-95.573 213.333-213.333s-95.573-213.333-213.333-213.333c-105.899 0-193.877 77.312-210.517 178.517l83.925 15.659c9.259-61.568 62.464-108.843 126.592-108.843 70.656 0 128 57.387 128 128s-57.344 128-128 128c-20.608 0-39.893-5.248-57.131-13.909l57.131-71.424z" />
<glyph unicode="&#xe9bd;" glyph-name="file-fill_01" d="M621.568 956.8c93.952-50.091 253.355-208.341 317.099-293.589-54.869 38.4-172.544 70.699-259.883 50.304 9.472 62.635-7.893 193.451-57.216 243.285zM586.411 618.667s64.939 341.333-142.293 341.333h-358.784v-1024h853.333v554.667c0 145.877-223.872 159.787-352.256 128z" />
<glyph unicode="&#xe9be;" glyph-name="file-fill_02" d="M665.685 956.8c93.909-50.091 209.237-138.837 272.981-224.085-54.869 38.4-128.469 43.819-215.808 23.424 9.472 62.677-7.893 150.827-57.173 200.661zM630.485 661.333s64.939 298.667-142.293 298.667h-232.192v-853.333h682.667v453.504c0 145.92-179.797 132.949-308.181 101.163zM170.667 21.333v853.333h-85.333v-938.667h768v85.333h-682.667z" />
<glyph unicode="&#xe9bf;" glyph-name="file-fill_03" d="M665.685 786.133c93.909-50.091 209.237-138.837 272.981-224.085-54.869 38.4-128.469 43.819-215.808 23.424 9.472 62.677-7.893 150.827-57.173 200.661zM630.485 490.667s64.939 298.667-142.293 298.667h-232.192v-853.333h682.667v453.504c0 145.92-179.797 132.949-308.181 101.163zM597.333 874.667l-128 85.333h-384v-938.667h85.333v853.333h426.667z" />
<glyph unicode="&#xe9c0;" glyph-name="file-fill_04" d="M789.333 320c-105.941 0-192-85.973-192-192s86.059-192 192-192 192 85.973 192 192-86.059 192-192 192zM896 106.667h-85.333v-85.333h-42.667v85.333h-85.333v42.667h85.333v85.333h42.667v-85.333h85.333v-42.667zM589.653-64h-546.987v1024h358.784c207.232 0 142.293-341.333 142.293-341.333 128.384 31.787 352.256 17.877 352.256-128v-106.709c-32.896 13.739-68.864 21.376-106.667 21.376-152.917 0-277.333-124.416-277.333-277.333 0-74.539 29.696-142.123 77.653-192zM578.901 956.8c93.952-50.091 253.355-208.341 317.099-293.589-54.869 38.4-172.544 70.699-259.883 50.304 9.472 62.635-7.893 193.451-57.216 243.285z" />
<glyph unicode="&#xe9c1;" glyph-name="file-fill_05" d="M789.333 320c-105.941 0-192-85.973-192-192s86.059-192 192-192 192 85.973 192 192-86.059 192-192 192zM896 106.667h-213.333v42.667h213.333v-42.667zM589.653-64h-546.987v1024h358.784c207.232 0 142.293-341.333 142.293-341.333 128.384 31.787 352.256 17.877 352.256-128v-106.709c-32.896 13.739-68.864 21.376-106.667 21.376-152.917 0-277.333-124.416-277.333-277.333 0-74.539 29.696-142.123 77.653-192zM578.901 956.8c93.952-50.091 253.355-208.341 317.099-293.589-54.869 38.4-172.544 70.699-259.883 50.304 9.472 62.635-7.893 193.451-57.216 243.285z" />
<glyph unicode="&#xe9c2;" glyph-name="file-fill_06" d="M586.411 618.667s64.939 341.333-142.293 341.333h-358.784v-1024h853.333v554.667c0 145.877-223.872 159.787-352.256 128zM597.333 149.333h-341.333v42.667h341.333v-42.667zM768 277.333h-512v42.667h512v-42.667zM768 405.333h-512v42.667h512v-42.667zM621.568 956.8c93.952-50.091 253.355-208.341 317.099-293.589-54.869 38.4-172.544 70.699-259.883 50.304 9.472 62.635-7.893 193.451-57.216 243.285z" />
<glyph unicode="&#xe9c3;" glyph-name="file-fill_07" d="M586.411 618.667s64.939 341.333-142.293 341.333h-358.784v-1024h853.333v554.667c0 145.877-223.872 159.787-352.256 128zM768 149.333h-512v42.667h512v-42.667zM768 277.333h-512v42.667h512v-42.667zM768 405.333h-512v42.667h512v-42.667zM621.568 956.8c93.952-50.091 253.355-208.341 317.099-293.589-54.869 38.4-172.544 70.699-259.883 50.304 9.472 62.635-7.893 193.451-57.216 243.285z" />
<glyph unicode="&#xe9c4;" glyph-name="file-fill_08" d="M621.568 956.8c93.952-50.091 253.355-208.341 317.099-293.589-54.869 38.4-172.544 70.699-259.883 50.304 9.472 62.635-7.893 193.451-57.216 243.285zM938.667 490.667v-554.667h-853.333v1024h358.784c207.232 0 142.293-341.333 142.293-341.333 128.384 31.787 352.256 17.877 352.256-128zM298.667 426.667c0-35.328 28.672-64 64.043-64 35.285 0 63.957 28.672 63.957 64s-28.672 64-63.957 64c-35.371 0-64.043-28.672-64.043-64zM725.333 149.333l-149.333 256-89.301-126.635-55.893 41.301-132.139-170.667h426.667z" />
<glyph unicode="&#xe9c5;" glyph-name="file-fill_09" d="M586.411 618.667s64.939 341.333-142.293 341.333h-358.784v-1024h853.333v554.667c0 145.877-223.872 159.787-352.256 128zM682.624 240.981c-0.128-71.851-105.984-87.851-124.8-34.645-14.208 40.32 34.005 83.072 82.176 73.6v124.245l-170.709-40.747v-148.011c-0.043-71.765-106.667-87.851-125.44-34.603-14.251 40.277 34.688 83.115 82.816 73.515v185.344l255.957 50.987v-249.685zM621.568 956.8c93.952-50.091 253.355-208.341 317.099-293.589-54.869 38.4-172.544 70.699-259.883 50.304 9.472 62.635-7.893 193.451-57.216 243.285z" />
<glyph unicode="&#xe9c6;" glyph-name="file-fill_10" d="M621.568 956.843c93.952-50.091 253.355-208.427 317.099-293.632-54.869 38.357-172.544 70.699-259.883 50.304 9.472 62.635-7.893 193.493-57.216 243.328zM938.667 490.667v-554.667h-853.333v1024h358.784c207.232 0 142.293-341.333 142.293-341.333 128.384 31.787 352.256 17.92 352.256-128zM640 340.992l-256 150.528v-299.52l256 148.992z" />
<glyph unicode="&#xe9c7;" glyph-name="file-fill_11" d="M546.944 344.448c2.731-11.392 3.285-28.971-0.896-40.448-5.461-14.976-16.256-22.528-32.171-22.528h-27.179v90.453h21.163c20.224 0 34.261-7.381 39.083-27.477zM678.827 713.515c87.339 20.437 205.013-11.904 259.84-50.304-63.744 85.205-223.147 243.541-317.099 293.632 49.365-49.835 66.688-180.693 57.259-243.328zM360.661 374.101h-23.296v-40.235h23.296c10.027 0 19.925 1.152 24.576 9.685 2.859 5.248 2.859 15.616 0 20.864-4.651 8.448-14.549 9.685-24.576 9.685zM938.667 490.667v-554.667h-853.333v1024h358.784c207.275 0 142.251-341.333 142.251-341.333 128.469 31.787 352.299 17.92 352.299-128zM422.059 372.864c-6.827 20.651-25.856 32.469-52.224 32.469h-71.168v-157.269h38.699v54.485h32.469c26.411 0 45.397 11.819 52.224 32.555 4.011 12.459 4.011 25.472 0 37.76zM567.424 385.792c-12.672 12.757-30.336 19.541-51.157 19.541h-68.224v-157.269h68.224c22.912 0 41.003 7.723 53.845 22.827 23.637 28.117 25.003 86.827-2.688 114.901zM725.333 405.333h-112.128v-157.269h38.699v62.805h63.573v31.232h-63.573v29.781h73.429v33.451z" />
<glyph unicode="&#xe9c8;" glyph-name="file-fill_12" d="M377.472 197.333c8.149 9.003 23.381 18.389 34.176 23.851-6.485-12.8-15.616-26.411-23.211-33.792-15.36-15.061-23.723-4.053-10.965 9.941zM678.784 713.515c87.339 20.395 205.013-11.947 259.883-50.304-63.744 85.205-223.147 243.541-317.099 293.632 49.323-49.835 66.688-180.693 57.216-243.328zM475.307 277.888c13.995 4.651 44.203 11.691 51.755 13.44-0.853 0.896-22.528 23.211-29.653 35.499-5.717-14.293-21.717-48.085-22.101-48.939zM502.613 448.896c-2.432 11.861-11.221 12.757-13.909-1.024-2.432-12.629 1.237-32.896 5.504-45.269 4.821 10.112 10.88 34.347 8.405 46.293zM938.667 490.667v-554.667h-853.333v1024h358.784c207.232 0 142.293-341.333 142.293-341.333 128.384 31.787 352.256 17.92 352.256-128zM640.853 302.379c-22.443 3.285-54.272-0.384-76.672-3.968-16.427 13.867-36.949 34.859-52.608 62.805 10.795 27.819 17.707 49.835 20.608 65.536 15.104 81.877-84.437 88.405-73.771 0.512 2.816-23.424 9.472-46.165 19.797-67.755-12.203-30.251-27.776-64.341-43.435-95.232-34.603-13.099-59.563-26.752-74.325-40.704-51.712-48.768 12.587-113.536 61.355-43.264 11.691 16.853 24.789 40.747 34.603 59.563 30.592 10.795 66.176 20.267 99.413 26.368 21.717-16.64 56.405-38.229 84.139-38.229 52.864-0.043 60.459 65.621 0.896 74.368zM636.416 272.341c-8.533 1.28-20.821 1.28-35.371 0.085 10.027-6.741 23.808-13.781 38.869-14.080 17.579-0.341 16.085 11.093-3.499 13.995z" />
<glyph unicode="&#xe9c9;" glyph-name="file-fill_13" d="M444.117 960c207.232 0 142.293-341.333 142.293-341.333 128.384 31.787 352.256 17.877 352.256-128v-491.307l-204.843 204.843c21.632 33.365 34.176 73.131 34.176 115.797 0 117.76-95.573 213.333-213.333 213.333s-213.333-95.573-213.333-213.333 95.573-213.333 213.333-213.333c44.245 0 85.333 13.483 119.424 36.608l207.275-207.275h-796.032v1024h358.784zM554.667 448c70.656 0 128-57.344 128-128s-57.344-128-128-128-128 57.344-128 128 57.344 128 128 128zM621.568 956.8c93.909-50.091 253.355-208.384 317.099-293.632-54.869 38.4-172.544 70.699-259.883 50.347 9.472 62.635-7.936 193.451-57.216 243.285z" />
<glyph unicode="&#xe9ca;" glyph-name="file-fill_14" d="M938.667-64h-853.333v1024h358.784c207.232 0 142.293-341.333 142.293-341.333 128.384 31.787 352.256 17.877 352.256-128v-554.667zM512 362.667l-57.131 71.424c17.237 8.661 36.523 13.909 57.131 13.909 70.656 0 128-57.387 128-128s-57.344-128-128-128c-64.128 0-117.333 47.275-126.592 108.843l-83.925-15.659c16.64-101.205 104.619-178.517 210.517-178.517 117.76 0 213.333 95.573 213.333 213.333s-95.573 213.333-213.333 213.333c-40.832 0-78.72-11.819-111.147-31.744l-59.52 74.411-42.667-213.333h213.333zM621.568 956.8c93.909-50.091 253.355-208.384 317.099-293.632-54.869 38.4-172.544 70.699-259.883 50.347 9.472 62.635-7.936 193.451-57.216 243.285z" />
<glyph unicode="&#xe9cb;" glyph-name="file-thin_01" d="M938.667-64h-853.333v1024h597.333l256-256v-768zM640 917.333h-512v-938.667h768v682.667h-256v256zM768 277.333v-42.667h-512v42.667h512zM768 405.333v-42.667h-512v42.667h512zM768 533.333v-42.667h-512v42.667h512zM682.667 704h195.669l-195.669 195.669v-195.669z" />
<glyph unicode="&#xe9cc;" glyph-name="file-thin_02" d="M938.667-64h-768v938.667h512l256-256v-682.667zM640 832h-426.667v-853.333h682.667v597.333h-256v256zM597.333 917.333h-469.333v-896h-42.667v938.667h512v-42.667zM682.667 618.667h195.669l-195.669 195.669v-195.669z" />
<glyph unicode="&#xe9cd;" glyph-name="file-thin_03" d="M938.667-64h-853.333v1024h597.333l256-256v-768zM640 917.333h-512v-938.667h768v682.667h-256v256zM682.667 704h195.669l-195.669 195.669v-195.669z" />
<glyph unicode="&#xe9ce;" glyph-name="folder-bold_01" d="M832 405.333c-105.941 0-192-85.973-192-192s86.059-192 192-192 192 85.973 192 192-86.059 192-192 192zM938.667 192h-85.333v-85.333h-42.667v85.333h-85.333v42.667h85.333v85.333h42.667v-85.333h85.333v-42.667zM632.32 21.333h-632.32v853.333h298.667c72.32-82.859 101.163-128 170.667-128h554.667v-333.653c-24.576 23.637-53.419 42.923-85.333 56.277v192.043h-469.333c-99.84 0-150.912 59.221-209.749 128h-174.251v-682.667h490.752c13.312-31.957 32.64-60.757 56.235-85.333z" />
<glyph unicode="&#xe9cf;" glyph-name="folder-bold_02" d="M1024 234.667h-128v128h-85.333v-128h-128v-85.333h128v-128h85.333v128h128v85.333zM597.333 21.333h-597.333v853.333h298.667c72.32-82.859 101.163-128 170.667-128h554.667v-298.667h-85.333v213.333h-469.333c-99.84 0-150.912 59.221-209.749 128h-174.251v-682.667h512v-85.333z" />
<glyph unicode="&#xe9d0;" glyph-name="folder-bold_03" d="M832 405.333c-105.941 0-192-85.973-192-192s86.059-192 192-192 192 85.973 192 192-86.059 192-192 192zM938.667 192h-213.333v42.667h213.333v-42.667zM632.32 21.333h-632.32v853.333h298.667c72.32-82.859 101.163-128 170.667-128h554.667v-333.653c-24.576 23.637-53.419 42.923-85.333 56.277v192.043h-469.333c-99.84 0-150.912 59.221-209.749 128h-174.251v-682.667h490.752c13.312-31.957 32.64-60.757 56.235-85.333z" />
<glyph unicode="&#xe9d1;" glyph-name="folder-fill_01" d="M469.333 746.667c-69.504 0-98.347 45.141-170.667 128h-298.667v-853.333h1024v725.333h-554.667z" />
</font>
</defs>
</svg>
